<?xml version="1.0" standalone="no"?>
<!DOCTYPE svg PUBLIC "-//W3C//DTD SVG 1.1//EN" "http://www.w3.org/Graphics/SVG/1.1/DTD/svg11.dtd" >
<svg xmlns="http://www.w3.org/2000/svg" xmlns:xlink="http://www.w3.org/1999/xlink" version="1.1">
<metadata>
Created by FontForge 20201107 at Mon Jul  1 22:28:00 2024
 By 
Copyright (c) 2020 by Daniel Hernandez. All rights reserved.
</metadata>
<defs>
<font id="Apparel-RegularIt" horiz-adv-x="0" >
  <font-face 
    font-family="Apparel It"
    font-weight="400"
    font-style="italic"
    font-stretch="normal"
    units-per-em="2048"
    panose-1="0 0 5 0 0 0 0 0 0 0"
    ascent="1638"
    descent="-410"
    x-height="1044"
    cap-height="1452"
    bbox="-1430 -446 4620 2034"
    underline-thickness="102"
    underline-position="-204"
    slope="-11"
    unicode-range="U+0020-FB02"
  />
<missing-glyph horiz-adv-x="1376" 
d="M291 0v1495h880v-1495h-880zM1038 1423h-614l307 -587zM373 150l313 598l-313 598v-1196zM1090 1346l-312 -598l312 -598v1196zM1038 72l-307 587l-307 -587h614z" />
    <glyph glyph-name="fi" unicode="fi" horiz-adv-x="1181" 
d="M270 98q0 -42 35 -63t115 -27l-2 -8h-451l2 8q134 9 156 127l145 873h-137l8 36h135l29 175q26 141 123 219t240 78q86 0 162.5 -23.5t127 -72t50.5 -113.5q0 -47 -25 -73t-70 -26q-49 0 -72.5 29.5t-31.5 91.5q-6 78 -44.5 119t-107.5 41q-79 0 -124.5 -51t-65.5 -164
l-39 -230h219l-8 -36h-217l-146 -863q-6 -27 -6 -47zM1159 354l12 -2q-125 -368 -311 -368q-75 0 -104.5 50.5t-14.5 139.5l119 678q19 113 -55 113q-39 0 -80.5 -38t-69 -84t-47.5 -95l-10 2q122 315 305 315q73 0 102.5 -49t14.5 -142l-121 -677q-21 -113 47 -113
q35 0 70 28.5t62.5 73t47.5 86.5t33 82z" />
    <glyph glyph-name="fl" unicode="fl" horiz-adv-x="1173" 
d="M1151 354l10 -2q-125 -368 -311 -368q-75 0 -104.5 50.5t-14.5 139.5l195 1077q13 117 -42.5 176.5t-140.5 59.5q-109 0 -180.5 -68.5t-99.5 -224.5l-29 -150h221l-6 -36h-221l-162 -873q-11 -63 19.5 -90.5t126.5 -36.5l-2 -8h-451l2 8q134 9 156 127l159 873h-133l7 36
h135l14 82q19 105 65.5 183.5t109.5 122t129.5 64t137.5 20.5q164 0 238 -113l141 104h8l-239 -1310q-21 -113 47 -113q35 0 70.5 28t63 73.5t47 86.5t34.5 82z" />
    <glyph glyph-name=".notdef" horiz-adv-x="1376" 
d="M291 0v1495h880v-1495h-880zM1038 1423h-614l307 -587zM373 150l313 598l-313 598v-1196zM1090 1346l-312 -598l312 -598v1196zM1038 72l-307 587l-307 -587h614z" />
    <glyph glyph-name=".null" 
 />
    <glyph glyph-name="nonmarkingreturn" horiz-adv-x="682" 
 />
    <glyph glyph-name="space" unicode=" " horiz-adv-x="493" 
 />
    <glyph glyph-name="exclam" unicode="!" horiz-adv-x="491" 
d="M233 455h-20q13 60 24.5 124.5t19.5 110.5t17.5 115.5t13.5 98t13.5 103.5t11.5 89q15 178 17 250q2 68 31 107.5t83 39.5q39 0 62 -23t22 -63q-2 -41 -25 -98.5t-68.5 -167.5t-82.5 -234q-76 -245 -119 -452zM139 -8q-47 0 -77.5 30t-30.5 76q0 53 36.5 90t92.5 37
q49 0 79.5 -29t30.5 -75q0 -55 -36 -92t-95 -37z" />
    <glyph glyph-name="quotedbl" unicode="&#x22;" horiz-adv-x="591" 
d="M285 1094h-23q17 102 16 148.5t-8 94t-6 66.5q2 40 25 65t61 25q30 0 49 -17t19 -46q0 -27 -14 -56t-33.5 -56t-44.5 -87t-41 -137zM539 1094h-23q17 102 16 148.5t-8 94t-6 66.5q2 40 25 65t61 25q30 0 49 -17t19 -46q0 -27 -14 -56t-33.5 -56t-44.5 -87t-41 -137z" />
    <glyph glyph-name="numbersign" unicode="#" horiz-adv-x="1255" 
d="M1284 1024l-6 -41h-258l-170 -430h274l-8 -41h-280l-185 -469h-41l185 469h-430l-185 -469h-41l185 469h-252l8 41h258l170 430h-275l7 41h282l180 459h41l-180 -459h430l181 459h40l-180 -459h250zM379 553h430l170 430h-430z" />
    <glyph glyph-name="dollar" unicode="$" horiz-adv-x="1075" 
d="M799 1640l-37 -176q136 -11 220.5 -80t84.5 -172q0 -80 -33.5 -131t-87.5 -51q-34 0 -55 19.5t-21 50.5q0 24 8.5 40.5t21 28t25 24t21 35t8.5 54.5q0 61 -54.5 103t-143.5 51l-131 -611l22 -10q162 -71 230.5 -156.5t68.5 -218.5q0 -186 -143.5 -317t-353.5 -135
l-46 -209h-32l43 209q-165 5 -263 76t-98 188q0 78 34 128t85 50q33 0 53.5 -20.5t20.5 -51.5q0 -29 -13 -50t-29 -32t-29 -35t-13 -59q0 -72 69.5 -115.5t190.5 -46.5l139 666l-39 19q-149 64 -217.5 147.5t-68.5 198.5q0 187 132.5 301t348.5 114h8l37 174h37zM594 840
l125 598h-4q-162 0 -259.5 -82.5t-97.5 -220.5q0 -94 55 -163t181 -132zM825 354q0 109 -52.5 181.5t-178.5 136.5l-139 -652q163 5 266.5 98.5t103.5 235.5z" />
    <glyph glyph-name="percent" unicode="%" horiz-adv-x="1314" 
d="M1372 1417l-1327 -1440l-31 25l1327 1440zM440 831q-111 0 -178 71.5t-67 182.5q0 144 91.5 245.5t233.5 101.5q111 0 178.5 -71.5t67.5 -180.5q0 -145 -89.5 -247t-236.5 -102zM449 877q119 0 195.5 85t76.5 207q0 97 -57 158.5t-152 61.5q-118 0 -195 -86.5t-77 -208.5
q0 -96 57.5 -156.5t151.5 -60.5zM868 -14q-111 0 -177 71t-66 183q0 143 91.5 244.5t233.5 101.5q111 0 178.5 -71.5t67.5 -182.5q0 -143 -90.5 -244.5t-237.5 -101.5zM879 31q119 0 195.5 85t76.5 208q0 96 -57 156.5t-154 60.5q-117 0 -194.5 -86.5t-77.5 -208.5
q0 -95 57.5 -155t153.5 -60z" />
    <glyph glyph-name="ampersand" unicode="&#x26;" horiz-adv-x="1318" 
d="M1309 803l-4 -10q-79 -9 -122 -35.5t-55 -77.5q-45 -201 -157 -344l98 -170q37 -65 70 -100.5t75 -55.5l-2 -10h-249q-10 40 -22.5 65t-66.5 119l-24 41q-233 -239 -502 -239q-142 0 -227.5 78.5t-85.5 211.5q0 180 126.5 313t352.5 214q-44 81 -63 140t-19 124
q0 172 117.5 290t300.5 118q118 0 184 -58t66 -160q0 -76 -32.5 -144t-91 -120.5t-130 -92.5t-158.5 -71q20 -36 53 -94l211 -368q59 79 101.5 177.5t42.5 160.5q0 75 -131 88l2 10h342zM856 1438q-124 0 -206.5 -85.5t-82.5 -207.5q0 -58 24.5 -121.5t82.5 -167.5
q187 67 286 165t99 224q0 89 -54.5 141t-148.5 52zM453 72q108 0 197.5 42t185.5 136l-265 450q-5 8 -21.5 37t-23.5 43q-167 -69 -264.5 -181.5t-97.5 -264.5q0 -122 78.5 -192t210.5 -70z" />
    <glyph glyph-name="quotesingle" unicode="'" horiz-adv-x="337" 
d="M285 1094h-23q17 102 16 148.5t-8 94t-6 66.5q2 40 25 65t61 25q30 0 49 -17t19 -46q0 -27 -14 -56t-33.5 -56t-44.5 -87t-41 -137z" />
    <glyph glyph-name="parenleft" unicode="(" horiz-adv-x="536" 
d="M358 -299l-14 -14q-126 143 -193 325.5t-67 384.5q0 342 171.5 653.5t492.5 534.5l10 -16q-295 -224 -457 -539t-162 -653q0 -374 219 -676z" />
    <glyph glyph-name="parenright" unicode=")" horiz-adv-x="536" 
d="M225 1571l15 14q126 -143 193 -326t67 -385q0 -341 -172 -652.5t-492 -534.5l-12 16q295 224 456.5 539t161.5 653q0 377 -217 676z" />
    <glyph glyph-name="asterisk" unicode="*" horiz-adv-x="868" 
d="M874 1274q19 -53 -43 -86q-28 -15 -111 -29t-163 -53q65 -40 141 -55t99 -29q22 -14 24 -37t-18 -49q-40 -53 -92 -18q-19 12 -38 41.5t-48.5 67.5t-73.5 69q0 -2 -1 -6.5t-1 -6.5q-10 -75 -2.5 -144.5t4.5 -92.5q-2 -34 -23 -56t-53 -22q-53 0 -53 45q0 26 14 53.5
t32.5 51t39.5 71t31 107.5q-51 -26 -90 -56t-58.5 -51t-43.5 -42t-50 -32q-62 -28 -80 19q-18 51 43 86q31 16 115 32.5t160 53.5q-51 32 -100.5 45t-84.5 18.5t-55 20.5q-49 33 -6 84q39 49 90 20q19 -13 34.5 -33.5t26 -40.5t37 -49t64.5 -55l2 14q12 69 5 144.5t-5 95.5
q0 31 21.5 52.5t53.5 21.5q50 0 50 -45q0 -25 -13.5 -51.5t-31.5 -50.5t-38.5 -72.5t-31.5 -108.5q60 33 104.5 69.5t75.5 65t60 43.5q62 32 81 -20z" />
    <glyph glyph-name="plus" unicode="+" horiz-adv-x="960" 
d="M512 573h373l-11 -43h-370l-80 -372h-43l80 372h-373l10 43h371l80 369h43z" />
    <glyph glyph-name="comma" unicode="," horiz-adv-x="454" 
d="M-16 -227l-11 20q78 49 114 83.5t36 68.5q0 22 -19.5 45t-39 50.5t-19.5 61.5q0 56 35.5 89.5t91.5 33.5q49 0 82 -28.5t33 -87.5q0 -80 -81.5 -168t-221.5 -168z" />
    <glyph glyph-name="hyphen" unicode="-" horiz-adv-x="774" 
d="M698 518h-622l10 49h623z" />
    <glyph glyph-name="period" unicode="." horiz-adv-x="444" 
d="M152 -8q-47 0 -78 30t-31 76q0 54 36 90.5t93 36.5q49 0 79 -29t30 -75q0 -55 -35 -92t-94 -37z" />
    <glyph glyph-name="slash" unicode="/" horiz-adv-x="583" 
d="M10 -186h-41l656 1669h41z" />
    <glyph glyph-name="zero" unicode="0" horiz-adv-x="1273" 
d="M547 -16q-129 0 -226 74.5t-145.5 199t-48.5 281.5q0 168 56.5 337t149 299.5t220 212.5t260.5 82q196 0 306 -153t110 -393q0 -134 -35.5 -271.5t-100.5 -256t-149 -212t-187.5 -147t-209.5 -53.5zM555 20q103 0 199.5 91t164 234.5t108 324t40.5 356.5q0 186 -62 297
t-186 111q-106 0 -205.5 -87.5t-169 -228t-111.5 -320t-42 -358.5q0 -193 65 -306.5t199 -113.5z" />
    <glyph glyph-name="one" unicode="1" horiz-adv-x="647" 
d="M479 0h-506l2 10q102 6 148 39t59 98l207 1070q6 27 6 59q0 48 -36 68t-109 18l2 10l313 94h21l-256 -1319q-14 -67 19 -100t132 -37z" />
    <glyph glyph-name="two" unicode="2" horiz-adv-x="1103" 
d="M866 2l-874 -2l4 20l496 437q200 175 294.5 323t94.5 320q0 145 -69.5 224t-190.5 79q-118 0 -211 -71.5t-93 -168.5q0 -51 35 -92q-27 -45 -90 -45q-31 0 -49 20.5t-18 55.5q0 79 78.5 163.5t204 141.5t249.5 57q148 0 235 -77.5t87 -212.5q0 -78 -21.5 -150t-57 -134.5
t-102 -136.5t-137 -139.5t-180.5 -160.5l-395 -330h497q75 0 117 5.5t81.5 27t68 58.5t65.5 105h10z" />
    <glyph glyph-name="three" unicode="3" horiz-adv-x="1093" 
d="M723 846q131 -25 200.5 -106t69.5 -208q0 -102 -44.5 -200.5t-122.5 -175.5t-194.5 -124.5t-248.5 -47.5q-158 0 -249 62.5t-91 160.5q0 74 36 123t91 49q54 0 63 -43q-77 -61 -77 -158q0 -69 64.5 -114.5t182.5 -45.5q135 0 236.5 64t151 162t49.5 211q0 123 -74.5 203
t-206.5 92q-67 -33 -133 -58l-10 29q232 103 342 213t110 254q0 103 -59.5 164t-157.5 61q-121 0 -210 -70t-89 -174q0 -49 35 -84q-12 -20 -37 -32.5t-53 -12.5q-33 0 -51.5 19.5t-18.5 54.5q0 84 79 166.5t202.5 134t245.5 51.5q126 0 197 -62t71 -175q0 -199 -299 -383z
" />
    <glyph glyph-name="four" unicode="4" horiz-adv-x="1124" 
d="M1036 387h-207l-47 -240q-13 -66 21.5 -99.5t130.5 -37.5l-2 -10h-518l2 10q105 4 153.5 38.5t59.5 98.5l47 240h-680l6 27l983 1038h49l-198 -1026h208zM846 1253l-787 -827h625z" />
    <glyph glyph-name="five" unicode="5" horiz-adv-x="1093" 
d="M1155 1552h8l-82 -233l-669 -2l-162 -506q150 117 377 117q183 0 278.5 -96t95.5 -259q0 -122 -50 -232.5t-133.5 -188t-195.5 -123t-233 -45.5q-160 0 -260 68t-100 177q0 60 30 105t78 45q53 0 62 -43q-49 -49 -49 -141q0 -77 65.5 -127t181.5 -50q201 0 328 136
t127 366q0 148 -79.5 234t-248.5 86q-167 0 -286 -68l-31 16l211 664h479q118 0 167.5 19t90.5 81z" />
    <glyph glyph-name="six" unicode="6" horiz-adv-x="1161" 
d="M729 948q160 0 262.5 -104t102.5 -279q0 -158 -72.5 -291.5t-198 -210.5t-274.5 -77q-204 0 -325.5 125.5t-121.5 345.5q0 241 122 451.5t349.5 367t534.5 237.5l6 -28q-328 -88 -546.5 -280.5t-280.5 -489.5q99 122 203.5 177.5t238.5 55.5zM596 25q156 0 256 132
t100 339q0 165 -85.5 273t-219.5 108q-102 0 -186.5 -44.5t-179.5 -152.5q-17 -104 -17 -191q0 -205 88 -334.5t244 -129.5z" />
    <glyph glyph-name="seven" unicode="7" horiz-adv-x="1013" 
d="M156 1159l100 293l924 2l-9 -43l-593 -887q-67 -100 -87 -131t-54.5 -88t-44 -86t-9.5 -55q0 -30 16 -49t43 -19q37 0 68 31q5 -80 -33.5 -125t-111.5 -45q-57 0 -91 29t-34 82q0 57 48 136.5t234 334.5l551 780h-633q-114 0 -163 -29t-113 -131h-8z" />
    <glyph glyph-name="eight" unicode="8" horiz-adv-x="1155" 
d="M760 809q145 -68 210.5 -151.5t65.5 -192.5q0 -207 -156 -343t-405 -136q-180 0 -291.5 94t-111.5 237q0 160 111.5 273t301.5 166q-215 117 -215 317q0 94 39.5 171t107 126.5t157 76t190.5 26.5q163 0 259.5 -74.5t96.5 -204.5q0 -146 -95 -241.5t-265 -143.5z
M391 1147q0 -102 72.5 -175t236.5 -136l17 -7q170 40 267 130t97 229q0 119 -87.5 185.5t-233.5 66.5q-161 0 -265 -78.5t-104 -214.5zM487 20q195 0 310.5 95t115.5 250q0 115 -72.5 193t-242.5 147q-34 12 -74 30q-188 -48 -299.5 -152t-111.5 -255q0 -135 103 -221.5
t271 -86.5z" />
    <glyph glyph-name="nine" unicode="9" horiz-adv-x="1159" 
d="M702 1481q196 0 317.5 -127t121.5 -346q0 -258 -126 -482.5t-354 -379.5t-522 -214l-2 33q313 60 518 241t281 466q-100 -83 -198 -118.5t-214 -35.5q-170 0 -271 106t-101 279q0 122 42.5 230t115.5 184t175 120t217 44zM608 582q94 0 166.5 27t173.5 102q33 155 33 309
q0 194 -80 307t-225 113q-166 0 -273.5 -133t-107.5 -349q0 -170 86.5 -273t226.5 -103z" />
    <glyph glyph-name="colon" unicode=":" horiz-adv-x="507" 
d="M305 717q-46 0 -76 30t-30 76q0 54 35.5 90.5t91.5 36.5q50 0 80 -29t30 -75q0 -56 -35.5 -92.5t-95.5 -36.5zM164 -8q-47 0 -78 30t-31 76q0 53 36.5 90t92.5 37q49 0 80 -29t31 -75q0 -56 -35.5 -92.5t-95.5 -36.5z" />
    <glyph glyph-name="semicolon" unicode=";" horiz-adv-x="495" 
d="M299 717q-47 0 -78 30t-31 76q0 53 36.5 90t92.5 37q49 0 80 -29t31 -75q0 -56 -35.5 -92.5t-95.5 -36.5zM-14 -227l-11 20q78 49 114 83.5t36 68.5q0 22 -20 45t-40 50.5t-20 61.5q0 56 35.5 89.5t91.5 33.5q50 0 82.5 -28.5t32.5 -87.5q0 -80 -80.5 -168t-220.5 -168z
" />
    <glyph glyph-name="less" unicode="&#x3c;" horiz-adv-x="925" 
d="M860 961l19 -39l-721 -369l561 -371l-27 -35l-596 394l6 28z" />
    <glyph glyph-name="equal" unicode="=" horiz-adv-x="1075" 
d="M977 735h-787l9 43h786zM889 326h-787l9 43h786z" />
    <glyph glyph-name="greater" unicode="&#x3e;" horiz-adv-x="923" 
d="M219 928l27 35l598 -394l-6 -28l-760 -391l-17 40l717 369z" />
    <glyph glyph-name="question" unicode="?" horiz-adv-x="919" 
d="M428 428h-31q15 94 64 180.5t106.5 153t113.5 133t93.5 147t36.5 168.5q-2 99 -63.5 160.5t-165.5 61.5q-108 0 -176 -62t-68 -145q0 -27 11 -59.5t11 -49.5q0 -40 -25.5 -64t-66.5 -24q-36 0 -57 25t-21 63q0 144 115.5 242t290.5 98q166 0 261 -80t95 -213
q0 -72 -25.5 -133t-67.5 -106t-93.5 -86.5t-105.5 -83.5t-101 -86.5t-83 -106.5t-48 -133zM346 -20q-47 0 -77.5 30t-30.5 76q0 53 36.5 90t92.5 37q49 0 79.5 -29t30.5 -75q0 -55 -36 -92t-95 -37z" />
    <glyph glyph-name="at" unicode="@" horiz-adv-x="1863" 
d="M1161 1405q364 0 537 -204.5t100 -547.5q-35 -166 -120.5 -308t-201 -226t-231.5 -84q-125 0 -165 83.5t16 235.5l53 146q-47 -79 -89.5 -141t-97 -125t-106.5 -104.5t-114 -68t-124 -26.5q-102 0 -158.5 62.5t-56.5 170.5q0 136 67 281t170 257t236 184.5t257 72.5
q129 0 198 -72l10 27q101 21 170 55h5l-263 -717q-43 -117 -24 -180t98 -63q86 0 177 77t160.5 201.5t98.5 261.5q69 326 -95.5 523.5t-512.5 197.5q-202 0 -397.5 -88.5t-340 -232t-233 -334t-88.5 -385.5q0 -463 508 -608l-8 -21q-260 62 -396.5 221t-136.5 406
q0 167 58.5 329.5t163.5 295t241.5 234t301 158t333.5 56.5zM709 131q204 0 475 463l133 360q-64 78 -189 78q-95 0 -198.5 -67.5t-185 -170.5t-134.5 -234t-53 -251q0 -84 40.5 -131t111.5 -47z" />
    <glyph glyph-name="A" unicode="A" horiz-adv-x="1370" 
d="M840 1464l45 -2l280 -1315q8 -34 15 -53t21.5 -39.5t39 -30.5t62.5 -14l-3 -10h-460l2 10q82 6 120.5 29.5t38.5 77.5q0 15 -6 49l-59 293h-633l-153 -266q-37 -55 -37 -105q0 -34 28 -51.5t95 -26.5l-3 -10h-354l2 10q76 12 125.5 58.5t97.5 130.5zM926 500l-156 766
l-442 -766h598z" />
    <glyph glyph-name="B" unicode="B" horiz-adv-x="1312" 
d="M838 774q180 -24 271 -106.5t91 -212.5q0 -212 -168.5 -333.5t-458.5 -121.5h-583l2 10q79 6 120.5 39t53.5 98l223 1158q14 65 -13.5 99t-105.5 38l2 10h576q209 0 315.5 -75t106.5 -210q0 -162 -113 -262t-319 -131zM831 1415h-126q-133 0 -154 -112l-100 -512h221
q198 0 316 98.5t118 269.5q0 124 -70.5 190t-204.5 66zM457 39h129q206 0 324 114.5t118 311.5q0 135 -89 210t-263 75h-232l-112 -576q-24 -135 125 -135z" />
    <glyph glyph-name="C" unicode="C" horiz-adv-x="1370" 
d="M670 -14q-246 0 -395.5 152.5t-149.5 414.5q0 199 63.5 370t174.5 291t266.5 188t333.5 68q237 0 411 -96l-37 -362h-2q-25 211 -108 297q-117 121 -334 121q-133 0 -250 -58.5t-199 -159.5t-129 -240.5t-47 -297.5q0 -257 137 -414.5t371 -157.5q166 0 302 87.5
t214 254.5l6 -2q-88 -224 -251 -340t-377 -116z" />
    <glyph glyph-name="D" unicode="D" horiz-adv-x="1519" 
d="M817 1452q314 0 487 -159.5t173 -436.5q0 -178 -68.5 -335.5t-188 -272.5t-291.5 -181.5t-370 -66.5h-569l2 10q150 8 174 137l223 1158q14 65 -13.5 99t-105.5 38l2 10h545zM440 39h125q219 0 386.5 108t258 300t90.5 438q0 241 -128.5 384.5t-358.5 143.5h-100
q-140 0 -162 -117l-221 -1134q-11 -60 13.5 -91.5t96.5 -31.5z" />
    <glyph glyph-name="E" unicode="E" horiz-adv-x="1247" 
d="M1247 1452l-41 -399h-8q-3 197 -72 278q-71 82 -229 82h-205q-64 0 -95.5 -20.5t-41.5 -73.5l-104 -541h309q67 0 120.5 48t75.5 126h9l-80 -413h-8q11 90 -25.5 144t-116.5 54h-293l-116 -598q-10 -55 13 -77.5t89 -22.5h145q269 0 375 92q44 37 99.5 127.5t107.5 218.5
h8l-157 -477h-1012l2 10q146 8 170 137l223 1158q12 65 -14.5 99t-100.5 38l2 10h971z" />
    <glyph glyph-name="F" unicode="F" horiz-adv-x="1142" 
d="M1247 1452l-39 -391h-10q-3 186 -70 264q-41 47 -94 67.5t-131 20.5h-217q-113 0 -131 -94l-111 -565h320q65 0 117.5 53t74.5 143h11l-84 -432h-11q13 92 -19.5 144.5t-96.5 52.5h-318l-110 -568q-13 -66 18.5 -99.5t132.5 -37.5l-2 -10h-487l2 10q79 6 120.5 39
t53.5 98l223 1158q12 65 -15 99t-104 38l2 10h975z" />
    <glyph glyph-name="G" unicode="G" horiz-adv-x="1486" 
d="M1049 707l2 10h436v-10q-141 -11 -166 -138l-115 -585h-6q0 53 -20.5 78.5t-53.5 25.5q-24 0 -43 -8q-192 -94 -368 -94q-270 0 -430 152.5t-160 441.5q0 260 117.5 464t320.5 315t455 111q238 0 399 -79l-37 -361h-4q-11 118 -36 185.5t-66 111.5q-47 49 -133 76
t-197 27q-142 0 -264.5 -54.5t-212.5 -153.5t-141.5 -245.5t-51.5 -321.5q0 -269 152.5 -439.5t384.5 -170.5q50 0 106.5 13.5t83.5 24.5t84 36l89 450q25 129 -125 138z" />
    <glyph glyph-name="H" unicode="H" horiz-adv-x="1536" 
d="M1169 1442l2 10h455l-2 -10q-79 -4 -119 -38.5t-53 -98.5l-225 -1158q-25 -129 119 -137l-3 -10h-452l2 10q78 6 119 40t53 97l115 594h-738l-114 -594q-12 -64 15 -98.5t103 -38.5l-2 -10h-454l2 10q151 8 174 137l223 1158q26 129 -119 137l2 10h455l-2 -10
q-78 -6 -119 -40t-53 -97l-102 -525h737l102 525q23 129 -121 137z" />
    <glyph glyph-name="I" unicode="I" horiz-adv-x="636" 
d="M446 0h-456l2 10q151 8 174 137l223 1158q26 129 -119 137l2 10h457l-2 -10q-80 -6 -121 -40t-53 -97l-225 -1158q-12 -65 16 -99t105 -38z" />
    <glyph glyph-name="J" unicode="J" horiz-adv-x="837" 
d="M197 -14q-154 0 -230 61l43 334h2q6 -110 18.5 -169.5t35.5 -105.5q44 -86 143 -86q80 0 131.5 58t71.5 153l206 1074q12 64 -15 98.5t-103 38.5l2 10h456l-2 -10q-78 -6 -120 -39.5t-54 -97.5l-184 -940q-36 -191 -145 -285t-256 -94z" />
    <glyph glyph-name="K" unicode="K" horiz-adv-x="1376" 
d="M1133 1442l2 10h395l-2 -10q-115 -21 -295 -162l-516 -408l401 -725q24 -43 44.5 -68t55 -43.5t82.5 -25.5l-2 -10h-450l2 10q98 14 98 70q0 27 -22 67l-344 621l-158 -123l-96 -498q-12 -65 15 -99t103 -38l-2 -10h-454l2 10q150 8 174 137l223 1158q14 65 -13.5 99
t-105.5 38l2 10h457l-2 -10q-79 -6 -120.5 -39t-53.5 -98l-119 -607l696 547q91 75 91 129q0 55 -88 68z" />
    <glyph glyph-name="L" unicode="L" horiz-adv-x="1159" 
d="M1114 440h8l-149 -440h-983l2 10q79 6 120.5 39t53.5 98l223 1158q25 129 -119 137l2 10h463l-2 -10q-84 -4 -126.5 -38t-53.5 -99l-227 -1166q-10 -57 13 -78.5t93 -21.5h221q171 0 273 96q48 43 91 109t97 196z" />
    <glyph glyph-name="M" unicode="M" horiz-adv-x="1779" 
d="M1530 1452h268l-2 -10q-63 -13 -97.5 -44.5t-45.5 -99.5l-150 -1151q-6 -66 19.5 -99.5t99.5 -37.5l-2 -10h-457l2 10q160 9 176 137l152 1156l-731 -1264h-47l-256 1253l-287 -1132q-35 -139 119 -150l-2 -10h-336l2 10q79 7 119.5 45t56.5 105l291 1140q13 69 -11 100
t-92 42l3 10h272l246 -1192z" />
    <glyph glyph-name="N" unicode="N" horiz-adv-x="1476" 
d="M1231 1442l2 10h360l-2 -10q-165 -13 -188 -150l-252 -1292h-59l-660 1307l-221 -1147q-28 -139 131 -150l-2 -10h-360l2 10q161 13 188 150l225 1151q8 50 -22.5 84t-104.5 47l2 10h269l614 -1229l209 1069q24 140 -131 150z" />
    <glyph glyph-name="O" unicode="O" horiz-adv-x="1611" 
d="M737 -16q-131 0 -244.5 46t-193.5 126.5t-126 193.5t-46 242q0 175 63.5 336.5t173 282t265 192.5t329.5 72t313.5 -79t218.5 -218t79 -312q0 -175 -63 -336.5t-172 -281.5t-265 -192t-332 -72zM743 20q184 0 335 121t234 319.5t83 428.5q0 244 -119 396.5t-326 152.5
q-181 0 -331 -121t-234 -320t-84 -428q0 -245 118 -397t324 -152z" />
    <glyph glyph-name="P" unicode="P" horiz-adv-x="1236" 
d="M819 1452q238 0 353.5 -98t115.5 -267q0 -249 -195 -385.5t-536 -136.5h-149l-76 -391q-17 -87 11 -122t128 -42l-2 -10h-479l2 10q150 8 174 137l223 1158q14 65 -13.5 99t-105.5 38l2 10h547zM416 606h147q260 0 406.5 123.5t146.5 341.5q0 159 -81 251.5t-236 92.5
h-111q-116 0 -137 -117z" />
    <glyph glyph-name="Q" unicode="Q" horiz-adv-x="1611" 
d="M1888 -145l2 -9q-115 -80 -253.5 -127t-282.5 -47q-174 0 -322.5 82t-243.5 232q-16 -2 -51 -2q-131 0 -244.5 46t-193.5 126.5t-126 193.5t-46 242q0 175 63.5 336.5t173 282t265 192.5t329.5 72t313.5 -79t218.5 -218t79 -312q0 -301 -173 -541t-448 -315
q178 -258 529 -258q216 0 411 103zM301 569q0 -245 118 -397t324 -152q184 0 335 121t234 319.5t83 428.5q0 244 -119 396.5t-326 152.5q-181 0 -331 -121t-234 -320t-84 -428z" />
    <glyph glyph-name="R" unicode="R" horiz-adv-x="1294" 
d="M930 532l139 -376q25 -67 57 -101.5t97 -44.5l-2 -10h-279q-32 59 -57 147l-125 359q-30 94 -75 133t-146 39h-109l-98 -504q-17 -88 7.5 -122.5t111.5 -41.5l-2 -10h-459l2 10q78 6 120 39t54 98l223 1158q14 65 -14.5 99t-104.5 38l2 10h543q222 0 335.5 -83
t113.5 -247q0 -175 -129 -288t-355 -144q51 -11 87 -48t63 -110zM553 1311l-115 -594h183q225 0 349 106.5t124 298.5q0 146 -78.5 219.5t-229.5 73.5h-104q-56 0 -87.5 -24t-41.5 -80z" />
    <glyph glyph-name="S" unicode="S" horiz-adv-x="1165" 
d="M471 -14q-263 0 -416 84l37 389h4q35 -237 99 -318q44 -55 127 -85.5t186 -30.5q198 0 311 92.5t113 249.5q0 114 -78 187t-266 136q-189 66 -270.5 151t-81.5 206q0 130 71 227.5t192 148t273 50.5q221 0 369 -74l-31 -348h-4q-15 117 -36 182.5t-56 101.5
q-91 101 -289 101q-157 0 -262 -83t-105 -212q0 -104 76 -171t264 -134q188 -66 272.5 -154t84.5 -215q0 -217 -160 -349t-424 -132z" />
    <glyph glyph-name="T" unicode="T" horiz-adv-x="1253" 
d="M1364 1452l-41 -414h-8q3 215 -70 305q-55 70 -170 70h-110q-80 0 -97 -88l-227 -1178q-14 -67 12 -100t107 -37l-2 -10h-455l2 10q82 4 121.5 38.5t52.5 98.5l228 1178q9 46 -7 67t-59 21h-111q-128 0 -211 -76q-98 -84 -180 -299h-8l121 414h1112z" />
    <glyph glyph-name="U" unicode="U" horiz-adv-x="1445" 
d="M672 -16q-266 0 -390 138t-73 408l151 775q25 129 -120 137l2 10h456l-2 -10q-78 -4 -120 -38t-54 -99l-157 -809q-42 -228 52 -347.5t296 -119.5q185 0 312.5 122.5t172.5 354.5l150 774q13 66 -14.5 109.5t-100.5 52.5l2 10h334l-2 -10q-148 -20 -178 -162l-150 -774
q-49 -253 -189.5 -387.5t-377.5 -134.5z" />
    <glyph glyph-name="V" unicode="V" horiz-adv-x="1353" 
d="M1202 1442l2 10h352l-2 -10q-79 -17 -120.5 -51.5t-94.5 -122.5l-741 -1278h-43l-266 1315q-12 66 -38.5 98t-96.5 39l2 10h460l-2 -10q-181 -9 -153 -156l213 -1098l592 1033q118 197 -64 221z" />
    <glyph glyph-name="W" unicode="W" horiz-adv-x="2033" 
d="M1874 1442l2 10h354l-2 -10q-146 -24 -219 -174l-633 -1278h-45l-180 1204l-627 -1204h-45l-188 1315q-10 64 -38 97t-99 40l2 10h462l-2 -10q-90 -6 -126.5 -42.5t-26.5 -113.5l133 -1071l545 1049l-6 41q-10 65 -38 97.5t-100 39.5l2 10h463l-2 -10
q-89 -6 -125.5 -44.5t-27.5 -111.5l139 -1063l518 1043q12 24 17.5 41.5t6 39.5t-9.5 38t-36 31.5t-68 25.5z" />
    <glyph glyph-name="X" unicode="X" horiz-adv-x="1280" 
d="M1087 1452h355l-2 -10q-69 -13 -136.5 -60.5t-123.5 -113.5l-408 -484l279 -637q26 -61 59.5 -95t91.5 -42l-2 -10h-459l2 10q42 9 69 23.5t40 30.5t15.5 38t-2 42t-15.5 46l-219 500l-426 -504q-25 -30 -38 -57t-12.5 -51.5t25 -42.5t72.5 -25l-2 -10h-363l2 10
q124 23 256 174l463 543l-258 578q-12 29 -22.5 47.5t-28 39.5t-42 33.5t-56.5 16.5l2 10h459l-3 -10q-66 -17 -97.5 -43t-30.5 -55.5t14 -63.5l205 -461l378 447q117 143 -43 176z" />
    <glyph glyph-name="Y" unicode="Y" horiz-adv-x="1269" 
d="M1106 1442l2 10h356l-2 -10q-128 -26 -239 -174l-484 -650l-92 -471q-27 -129 121 -137l-2 -10h-457l2 10q83 4 122 39t50 98l92 461l-260 697q-25 67 -53 96.5t-90 40.5l2 10h449l-2 -10q-44 -9 -72.5 -23.5t-41.5 -31t-15.5 -39t1.5 -41.5t13 -45l221 -596l444 600
q34 47 43 79.5t-16 59t-92 37.5z" />
    <glyph glyph-name="Z" unicode="Z" horiz-adv-x="1284" 
d="M201 37l364 2q64 0 111.5 4t102 16t97.5 33t90 56t86.5 85t80.5 120.5t79 160.5h13l-187 -514h-1056l1136 1415h-356q-229 0 -350 -82.5t-226 -314.5h-10l148 434h1009z" />
    <glyph glyph-name="bracketleft" unicode="[" horiz-adv-x="530" 
d="M406 1583h325l-6 -33h-270l-361 -1818h271l-7 -33h-325z" />
    <glyph glyph-name="backslash" unicode="\" horiz-adv-x="708" 
d="M506 -186h-37l-215 1669h37z" />
    <glyph glyph-name="bracketright" unicode="]" horiz-adv-x="530" 
d="M174 -301h-326l7 33h270l358 1818h-268l6 33h326z" />
    <glyph glyph-name="asciicircum" unicode="^" horiz-adv-x="962" 
d="M700 1479l248 -682l-41 -21l-235 643l-506 -643l-35 21l539 682h30z" />
    <glyph glyph-name="underscore" unicode="_" horiz-adv-x="794" 
d="M688 -111h-819l12 50h819z" />
    <glyph glyph-name="grave" unicode="`" horiz-adv-x="565" 
d="M780 1198l-6 -4l-434 342v31l192 53z" />
    <glyph glyph-name="a" unicode="a" horiz-adv-x="1126" 
d="M1108 354l10 -2q-14 -38 -21.5 -58t-27.5 -65t-36 -72t-42.5 -64t-52 -57.5t-60 -36t-71.5 -15.5q-77 0 -105.5 53t-13.5 137l51 295q-29 -75 -57.5 -137t-70 -129.5t-85 -113t-101 -75.5t-118.5 -30q-108 0 -178 82.5t-70 234.5q0 145 47 286t123.5 245.5t177.5 168.5
t203 64q70 0 125 -31.5t88 -81.5l8 43q95 19 162 78h4l-151 -883q-18 -106 47 -106q113 0 215 270zM752 543l63 362q-29 60 -81.5 95.5t-121.5 35.5q-103 0 -196.5 -93.5t-151 -251t-57.5 -333.5q0 -142 49 -210t129 -68q55 0 109.5 40t101 110.5t84 146.5t72.5 166z" />
    <glyph glyph-name="b" unicode="b" horiz-adv-x="1081" 
d="M754 1065q116 0 191 -84t75 -252q0 -197 -78 -368.5t-212.5 -274t-289.5 -102.5q-145 0 -211 104l-8 -43l-162 -55l220 1265q14 79 -14.5 117t-108.5 41v10q187 32 319 84h6l-166 -929q30 77 57.5 137.5t69.5 129.5t85.5 114t102.5 75.5t124 30.5zM449 12
q88 0 168.5 57.5t135 150t87 208.5t32.5 231q0 163 -54 236.5t-140 73.5q-61 0 -118 -40.5t-104.5 -113t-82.5 -146.5t-70 -167l-65 -369q62 -121 211 -121z" />
    <glyph glyph-name="c" unicode="c" horiz-adv-x="944" 
d="M432 -16q-167 0 -261.5 109.5t-94.5 301.5q0 177 63 330.5t176.5 246.5t251.5 93q150 0 235 -86.5t85 -226.5q0 -70 -25 -113t-78 -43q-33 0 -55 20.5t-22 53.5q0 35 31.5 76t31.5 83q0 96 -56 150.5t-159 54.5q-109 0 -194.5 -72.5t-131 -194t-45.5 -267.5
q0 -177 84.5 -289.5t237.5 -112.5q105 0 194 66.5t136 197.5l12 -4q-55 -182 -164 -278t-252 -96z" />
    <glyph glyph-name="d" unicode="d" horiz-adv-x="1153" 
d="M1133 354l10 -2q-17 -48 -31.5 -85.5t-44.5 -94.5t-61.5 -94.5t-77.5 -65.5t-97 -28q-75 0 -103 53t-13 137l51 293q-30 -77 -57.5 -137t-69 -128t-85 -113t-102.5 -75t-124 -30q-118 0 -191.5 81.5t-73.5 245.5q0 147 46.5 285.5t124 241.5t184.5 165t223 62
q137 0 213 -86l49 276q14 79 -14.5 117t-108.5 41l2 10q188 33 318 84h6l-236 -1314q-18 -109 48 -109q32 0 64 22.5t55 54t44 72.5t32.5 69t19.5 52zM778 541l70 399q-71 96 -213 96q-89 0 -169.5 -59t-135.5 -153t-87 -211t-32 -232q0 -301 199 -301q48 0 94 28t82.5 71
t73.5 107t63.5 123t54.5 132z" />
    <glyph glyph-name="e" unicode="e" horiz-adv-x="907" 
d="M823 375l11 -4q-54 -181 -162.5 -284t-263.5 -103q-160 0 -248 110.5t-88 288.5q0 101 23.5 200.5t68.5 186t105.5 153t139.5 104.5t166 38q110 0 177 -57t67 -158q0 -77 -38 -144t-100 -114.5t-145.5 -84.5t-170 -58t-177.5 -31q13 -141 87.5 -230.5t205.5 -89.5
q116 0 204 72.5t138 204.5zM510 1020q-127 -2 -226.5 -151t-99.5 -384v-32q138 14 249 60t180 126t69 180q0 95 -52.5 149t-119.5 52z" />
    <glyph glyph-name="f" unicode="f" horiz-adv-x="579" 
d="M631 1516q90 0 139 -47.5t49 -118.5q0 -66 -30 -109t-72 -43q-29 0 -43.5 14.5t-14.5 36.5q0 24 15.5 39t34 22.5t34 27t15.5 51.5q0 45 -31.5 72.5t-83.5 27.5q-71 0 -112 -45t-58 -144l-43 -256h217l-8 -36h-215l-148 -863q-6 -30 -6 -47q0 -42 34 -63t116 -27l-2 -8
h-451l2 8q134 9 156 127l145 873h-137l8 36h135l29 175q14 82 47 141.5t79 92.5t95.5 48t104.5 15z" />
    <glyph glyph-name="g" unicode="g" horiz-adv-x="997" 
d="M756 1014l284 41l-18 -105l-244 47q115 -82 115 -241q0 -173 -116.5 -284.5t-295.5 -111.5q-136 0 -225 64q-61 -34 -89 -67t-28 -74q0 -54 48.5 -79t152.5 -30l203 -10q154 -8 228.5 -59.5t74.5 -159.5q0 -154 -153 -258.5t-380 -104.5q-166 0 -265 58.5t-99 162.5
q0 85 52 149.5t155 115.5q-103 45 -103 141q0 129 183 229q-101 84 -101 234q0 170 117 281.5t295 111.5q124 0 209 -51zM530 391q96 0 153.5 78.5t57.5 212.5q0 150 -71 251t-174 101q-94 0 -152.5 -79t-58.5 -212q0 -150 71 -251t174 -101zM530 27l-208 10q-78 3 -140 22
q-101 -52 -151.5 -110t-50.5 -135q0 -97 90.5 -151t246.5 -54q192 0 305 70.5t113 191.5q0 79 -51 115t-154 41z" />
    <glyph glyph-name="h" unicode="h" horiz-adv-x="1130" 
d="M1112 354l12 -2q-15 -42 -27 -72t-34.5 -78t-46.5 -82t-54.5 -67.5t-68.5 -51t-80 -17.5q-75 0 -105 51.5t-14 138.5l103 580q20 112 -14.5 165.5t-94.5 53.5q-57 0 -113.5 -41t-106 -114.5t-88.5 -147.5t-79 -168l-90 -502h-152l220 1249q14 76 -10.5 117t-112.5 47v10
q172 27 317 84h6l-166 -927q209 485 457 485q106 0 158 -73.5t24 -225.5l-100 -573q-21 -109 47 -109q36 0 73 31.5t65 80t46 87t29 71.5z" />
    <glyph glyph-name="i" unicode="i" horiz-adv-x="608" 
d="M397 1276q-51 0 -86 34t-35 85q0 49 35 81.5t86 32.5q48 0 83.5 -32.5t35.5 -81.5q0 -50 -35.5 -84.5t-83.5 -34.5zM285 -16q-74 0 -103.5 50.5t-15.5 139.5l121 678q19 113 -58 113q-55 0 -107.5 -67t-88.5 -150l-10 2q126 315 305 315q73 0 103 -49.5t13 -141.5
l-120 -677q-9 -57 2 -85t47 -28q44 0 90.5 51t74 106.5t48.5 112.5l10 -2q-120 -368 -311 -368z" />
    <glyph glyph-name="j" unicode="j" horiz-adv-x="530" 
d="M446 1276q-51 0 -85.5 34t-34.5 85q0 49 34.5 81.5t85.5 32.5q48 0 83.5 -32.5t35.5 -81.5q0 -50 -35.5 -84.5t-83.5 -34.5zM-78 -434q-81 0 -129.5 49.5t-48.5 122.5q0 68 37 113t90 45q28 0 42.5 -17.5t14.5 -42.5t-12 -40t-29 -22.5t-34 -15.5t-29 -25t-12 -44
q0 -44 28.5 -69.5t79.5 -25.5q148 0 189 222l188 1036q20 113 -57 113q-56 0 -108.5 -67t-88.5 -150l-10 2q19 48 37.5 87t47.5 83.5t59.5 74.5t72.5 50t88 20q73 0 102.5 -49t10.5 -142l-175 -956q-17 -91 -52.5 -160t-83 -110t-102.5 -61.5t-116 -20.5z" />
    <glyph glyph-name="k" unicode="k" horiz-adv-x="1081" 
d="M846 82q38 0 82 53.5t100 186.5l12 -5q-67 -183 -127 -258t-143 -75q-49 0 -87.5 28.5t-72.5 104.5l-157 344l-4 16q179 52 273.5 146t94.5 215q0 69 -34 102t-93 33q-47 0 -96 -32t-89 -79.5t-80.5 -114t-68 -123t-53.5 -118.5l-90 -506h-154l222 1249q12 81 -12 119.5
t-113 44.5l2 10q174 28 317 84h6l-166 -927q209 485 465 485q91 0 143 -48.5t52 -139.5q0 -129 -94 -219t-291 -152l149 -322q29 -60 51.5 -81t55.5 -21z" />
    <glyph glyph-name="l" unicode="l" horiz-adv-x="532" 
d="M211 -16q-75 0 -103.5 53t-13.5 137l189 1079q7 28 4 56t-13.5 49.5t-40 36.5t-75.5 18l2 10q172 27 317 84h6l-233 -1314q-18 -109 49 -109q31 0 62 22.5t53.5 53t44 71.5t33 69t20.5 54l10 -2q-17 -49 -32 -87.5t-45 -95t-61 -93.5t-77 -64.5t-96 -27.5z" />
    <glyph glyph-name="m" unicode="m" horiz-adv-x="1792" 
d="M1769 354l11 -2q-17 -49 -32.5 -87.5t-45 -94.5t-61 -93.5t-77.5 -65t-96 -27.5q-74 0 -103 51.5t-13 138.5l102 580q17 103 -13.5 161t-101.5 58q-52 0 -103.5 -40.5t-98.5 -113.5t-84 -147.5t-76 -169.5l-88 -502h-156l135 754q19 103 -11.5 161t-102.5 58
q-173 0 -373 -467l-90 -506h-154l152 852q18 113 -58 113q-94 0 -196 -217l-10 2q16 38 28 63.5t34 67t45 70t53 57t67 43t78 14.5q74 0 102.5 -50t13.5 -141l-51 -290q210 481 447 481q113 0 160 -78t22 -221l-33 -184q35 83 69 149.5t76.5 130.5t86 107t95.5 69.5
t107 26.5q114 0 162 -78t23 -221l-103 -573q-9 -56 1.5 -82.5t47.5 -26.5q36 0 73 31.5t65 80t46 87t29 71.5z" />
    <glyph glyph-name="n" unicode="n" horiz-adv-x="1212" 
d="M1192 354l10 -2q-17 -49 -32 -87.5t-45 -95t-61 -93.5t-77 -64.5t-96 -27.5q-75 0 -104 51.5t-15 138.5l102 580q20 113 -14 166t-100 53q-174 0 -379 -467l-90 -506h-154l152 852q18 113 -58 113q-94 0 -196 -217l-10 2q16 38 28 63.5t34 67t45 70t53 57t67 43t78 14.5
q74 0 102.5 -50t13.5 -141l-51 -290q212 481 453 481q107 0 158.5 -73.5t25.5 -225.5l-102 -573q-9 -56 1.5 -82.5t47.5 -26.5q36 0 73 31.5t65 80t46 87t29 71.5z" />
    <glyph glyph-name="o" unicode="o" horiz-adv-x="1060" 
d="M446 -16q-166 0 -269 114.5t-103 300.5q0 181 73 335t196.5 242.5t266.5 88.5q170 0 274.5 -116t104.5 -302q0 -137 -43.5 -260.5t-116.5 -211.5t-173 -139.5t-210 -51.5zM465 18q103 0 190 101t134 250t47 301q0 161 -60.5 259.5t-167.5 98.5q-80 0 -152.5 -58
t-121.5 -150.5t-78 -208.5t-29 -232q0 -161 63 -261t175 -100z" />
    <glyph glyph-name="p" unicode="p" horiz-adv-x="1157" 
d="M829 1065q122 0 195.5 -87t73.5 -249q0 -149 -47.5 -287t-126 -238t-185 -160t-219.5 -60q-119 0 -215 90l-88 -492h-154l226 1270q18 113 -58 113q-94 0 -196 -217l-10 2q16 38 28 63.5t34 67t45 70t53 57t67 43t78 14.5q73 0 102 -51.5t14 -143.5l-49 -276
q176 471 432 471zM526 12q113 0 211.5 93t154.5 242t56 312q0 155 -51.5 232.5t-140.5 77.5q-110 0 -201.5 -119.5t-173.5 -345.5l-70 -395q50 -53 99 -75t116 -22z" />
    <glyph glyph-name="q" unicode="q" horiz-adv-x="1075" 
d="M870 961l150 100h6l-264 -1479h-154l158 879q-29 -76 -57.5 -137.5t-69.5 -127.5t-85 -110.5t-103 -73t-123 -28.5q-112 0 -188.5 87.5t-76.5 252.5q0 193 77 364t208.5 274t282.5 103q146 0 239 -104zM780 545l72 391q-86 100 -225 100q-115 0 -212.5 -96t-150.5 -244
t-53 -305q0 -164 56 -237.5t147 -73.5q191 0 366 465z" />
    <glyph glyph-name="r" unicode="r" horiz-adv-x="860" 
d="M743 1065q73 0 114.5 -43.5t41.5 -120.5q0 -63 -33 -106t-86 -43q-55 0 -75 30q53 40 53 105q0 46 -24 70t-62 24q-74 0 -136.5 -103t-154.5 -370l-90 -508h-154l152 852q18 113 -58 113q-94 0 -196 -217l-10 2q16 38 28 63.5t34 67t45 70t53 57t67 43t78 14.5
q74 0 102.5 -50t13.5 -141l-45 -249q77 247 155 343.5t187 96.5z" />
    <glyph glyph-name="s" unicode="s" horiz-adv-x="860" 
d="M367 -16q-86 0 -168.5 20t-137.5 55l27 322h4q9 -104 22.5 -155.5t39.5 -90.5q78 -117 245 -117q107 0 173.5 56t66.5 145q0 82 -55.5 142.5t-177.5 115.5q-130 58 -191 125t-61 156q0 137 97 222t257 85q136 0 274 -55l-20 -279h-4q-14 135 -64 207q-29 44 -86 68
t-127 24q-104 0 -165.5 -48t-61.5 -126q0 -64 50.5 -111.5t178.5 -109.5q139 -70 197.5 -139.5t58.5 -169.5q0 -154 -102 -248t-270 -94z" />
    <glyph glyph-name="t" unicode="t" horiz-adv-x="765" 
d="M334 -16q-97 0 -138 67.5t-16 192.5l144 762h-246l2 8l244 94l202 235h6l-57 -299h373l-8 -38h-371l-137 -742q-34 -182 84 -182q76 0 152 81.5t141 217.5l10 -2q-69 -172 -169.5 -283.5t-215.5 -111.5z" />
    <glyph glyph-name="u" unicode="u" horiz-adv-x="1212" 
d="M1184 354l12 -2q-19 -53 -35 -92t-46 -95.5t-60.5 -92t-75.5 -62t-94 -26.5q-75 0 -104 51.5t-15 138.5l51 291q-212 -481 -452 -481q-107 0 -159 74.5t-24 226.5l99 561q19 119 -56 119q-91 0 -192 -208q-3 -6 -4 -9l-11 2q18 44 34 78t45.5 81.5t60 78.5t74.5 54t92 23
q74 0 102.5 -50t13.5 -141l-102 -577q-20 -114 15 -167.5t100 -53.5q43 0 87.5 28t82.5 71.5t77 108t69 124.5t62 133l89 503h153l-149 -849q-10 -59 1.5 -85t45.5 -26q36 0 72.5 30.5t64.5 78t46 87t30 74.5z" />
    <glyph glyph-name="v" unicode="v" horiz-adv-x="1044" 
d="M938 1063q34 0 53 -20.5t19 -57.5q0 -156 -215 -571q-15 -29 -30.5 -57t-27.5 -49.5t-30.5 -49.5t-28 -42.5t-31 -43t-28 -38t-32.5 -41t-30.5 -37t-34 -41t-33.5 -40.5h-30l-178 867q-15 74 -34 105.5t-52 31.5q-38 0 -80 -56t-82 -159h-13q15 46 28.5 80t37.5 79
t49.5 73t63.5 48.5t82 20.5q31 0 55 -13t38.5 -31t26.5 -50t18 -56t13 -63l143 -731q126 168 193 307q121 242 121 475q0 72 -31 117q11 19 33 31t47 12z" />
    <glyph glyph-name="w" unicode="w" horiz-adv-x="1556" 
d="M1448 1063q34 0 55 -22.5t21 -61.5q0 -74 -43 -195t-156 -335q-71 -139 -140.5 -242.5t-162.5 -220.5h-29l-112 716q-46 -143 -115 -284q-47 -92 -103.5 -178.5t-90 -130t-97.5 -123.5h-31l-168 858q-12 65 -30 93t-49 28q-39 0 -82 -57.5t-78 -157.5h-10q85 315 252 315
q32 0 57 -13t40 -31t27 -50t17.5 -55.5t13.5 -63.5l129 -715q101 130 176 293q58 136 80.5 233t22.5 195q0 51 -14 96.5t-35 69.5q14 16 46.5 27.5t69.5 11.5q34 0 51 -16t23 -54l125 -839q114 151 190 307q101 197 101 430q0 79 -33 129q10 17 32.5 30t49.5 13z" />
    <glyph glyph-name="x" unicode="x" horiz-adv-x="1077" 
d="M774 1044h322l-2 -10q-120 -17 -230 -153l-254 -312l148 -360q28 -68 51 -93.5t57 -25.5q45 0 84 64.5t66 164.5l12 -2q-30 -134 -55 -191q-62 -142 -172 -142q-64 0 -102.5 38.5t-82.5 147.5l-127 311l-225 -288q-42 -51 -53.5 -87t7.5 -60.5t71 -35.5l-2 -10h-334l2 10
q67 13 122.5 49.5t112.5 104.5l285 350l-145 354q-19 47 -37 66.5t-43 19.5q-86 0 -146 -194l-12 2q12 48 20.5 79.5t28 78.5t40.5 74.5t55.5 49t76.5 21.5q54 0 88.5 -33.5t63.5 -107.5l135 -324l203 264q113 144 -31 170z" />
    <glyph glyph-name="y" unicode="y" horiz-adv-x="1044" 
d="M940 1063q32 0 51 -20.5t19 -57.5q0 -152 -215 -569q-128 -255 -265 -430q-131 -167 -278.5 -266.5t-355.5 -141.5v125q362 37 571 260l-191 891q-13 68 -32 96.5t-49 28.5q-40 0 -81.5 -54t-80.5 -161h-13q41 146 107 223.5t149 77.5q30 0 53.5 -11.5t37.5 -27t26 -45.5
t18 -52.5t15 -62.5l156 -751q108 151 186 313q121 245 121 457q0 83 -35 135q28 43 86 43z" />
    <glyph glyph-name="z" unicode="z" horiz-adv-x="970" 
d="M219 1044h733l-4 -24l-766 -991h275q61 0 113.5 18t107 61t105 123.5t94.5 196.5h12l-135 -428h-768l784 1016h-258q-124 0 -222.5 -81t-178.5 -271h-13z" />
    <glyph glyph-name="braceleft" unicode="{" horiz-adv-x="514" 
d="M326 1098q0 239 93 355.5t279 131.5v-20q-132 -12 -201 -81t-96 -200q-21 -95 -25 -222t-18 -196q-22 -100 -79.5 -158.5t-133.5 -74.5q54 -16 87.5 -64t33.5 -129q0 -69 -16 -129t-39 -104t-46.5 -87t-39.5 -97.5t-16 -116.5q0 -181 194 -199l-8 -20q-113 8 -176.5 63.5
t-63.5 153.5q0 66 17 125.5t41.5 105.5t49 91.5t41.5 101.5t17 116q0 91 -44.5 134t-113.5 43l7 30q65 0 112.5 26t75 66t43 102t20.5 120t5 133z" />
    <glyph glyph-name="bar" unicode="|" horiz-adv-x="432" 
d="M63 -299h-45l373 1751h45z" />
    <glyph glyph-name="braceright" unicode="}" horiz-adv-x="512" 
d="M236 174q0 -239 -94 -355.5t-281 -131.5v20q132 12 201 81t96 200q21 95 26 222t19 196q22 100 78.5 158.5t132.5 74.5q-53 17 -87 64.5t-34 127.5q0 69 16.5 129.5t39.5 104.5t46 87t39.5 97.5t16.5 116.5q0 181 -195 199l8 20q113 -8 177.5 -63.5t64.5 -153.5
q0 -66 -17 -125.5t-41.5 -106t-49 -92t-41.5 -101.5t-17 -116q0 -91 43.5 -133.5t112.5 -42.5l-7 -30q-65 0 -112 -26t-73.5 -66t-42.5 -102t-20.5 -120t-4.5 -133z" />
    <glyph glyph-name="asciitilde" unicode="~" horiz-adv-x="1058" 
d="M162 446h-43q21 99 85.5 153t151.5 54q46 0 88.5 -13.5t76 -32t66 -37.5t70 -32.5t76.5 -13.5q69 0 116.5 40t65.5 122h43q-21 -100 -84.5 -153.5t-152.5 -53.5q-53 0 -104 20t-85.5 43.5t-83.5 43.5t-100 20q-150 0 -186 -160z" />
    <glyph glyph-name="exclamdown" unicode="&#xa1;" horiz-adv-x="448" 
d="M334 1075q47 0 77.5 -29t30.5 -75q0 -55 -35.5 -91t-93.5 -36q-49 0 -78.5 28.5t-29.5 73.5q0 57 35 93t94 36zM242 614h18q-56 -265 -98 -641q-16 -191 -19 -249q0 -68 -29.5 -108t-82.5 -40q-39 0 -62.5 22.5t-23.5 63.5q2 41 25 98.5t69 167.5t84 234q69 222 119 452z
" />
    <glyph glyph-name="cent" unicode="&#xa2;" horiz-adv-x="1024" 
d="M545 98q105 0 193 66.5t136 197.5l13 -4q-55 -182 -164 -278t-252 -96q-33 0 -49 2l-35 -170h-31l35 176q-132 25 -205 130.5t-73 272.5q0 177 63 330t176.5 246t251.5 94l33 166h35l-33 -168q134 -9 210.5 -94.5t76.5 -216.5q0 -70 -25 -113t-78 -43q-33 0 -55.5 20.5
t-22.5 53.5q0 35 32 76t32 83q0 87 -45.5 140.5t-132.5 62.5l-185 -919q46 -15 99 -15zM223 500q0 -135 50 -235t145 -142l180 911h-4q-109 0 -194.5 -72.5t-131 -194t-45.5 -267.5z" />
    <glyph glyph-name="sterling" unicode="&#xa3;" horiz-adv-x="1234" 
d="M1069 1018q-30 0 -51 21t-21 51q0 26 12.5 46.5t27.5 32.5t27.5 38t12.5 63q0 75 -68 123t-180 49q-154 0 -248.5 -93t-109.5 -280q-2 -91 -2.5 -114.5t3.5 -117.5t5 -124h443l-7 -33h-436q4 -185 -24 -340q-5 -61 -23 -131q50 -27 72 -37.5t70 -30t95.5 -27.5t102.5 -8
q128 0 207 43t143 150l6 -4q-29 -98 -62.5 -161t-77.5 -97t-91.5 -47t-114.5 -13q-52 0 -96.5 11t-83.5 34.5t-64 42.5t-63.5 53t-56.5 48q-32 -94 -89 -144.5t-132 -50.5q-60 0 -100 38t-40 104q0 72 49 114.5t134 42.5q73 0 170 -51q20 88 20 176q0 102 -63 285h-248l6 33
h231q-55 167 -55 272q0 217 142.5 350t389.5 133q156 0 258.5 -78.5t102.5 -195.5q0 -79 -33.5 -127.5t-89.5 -48.5zM201 4q64 0 114 47t80 131q-80 56 -164 56q-68 0 -104.5 -32.5t-36.5 -92.5q0 -52 31.5 -80.5t79.5 -28.5z" />
    <glyph glyph-name="currency" unicode="&#xa4;" horiz-adv-x="1185" 
d="M1006 561q0 -224 -150 -350l137 -172l-32 -27l-138 174q-110 -77 -262 -77q-169 0 -282 116l-242 -211l-25 29l244 209q-78 100 -78 231q0 101 39 189.5t109 152.5l-129 168l30 23l131 -166q114 84 269 84q169 0 280 -117l240 201l22 -27l-237 -203q74 -104 74 -227z
M219 492q0 -142 96 -242t250 -100q183 0 290.5 114.5t107.5 288.5q0 140 -96.5 241t-245.5 101q-176 0 -289 -116.5t-113 -286.5z" />
    <glyph glyph-name="yen" unicode="&#xa5;" horiz-adv-x="1245" 
d="M1022 1442l4 10h352l-4 -10q-139 -25 -235 -174l-391 -555h282l-6 -33h-295l-53 -254h293l-6 -33h-293l-56 -256q-26 -129 117 -137l-2 -10h-457l2 10q81 6 123 39.5t56 97.5l53 256h-291l6 33h291l55 254h-291l7 33h276l-194 592q-18 65 -48 96t-90 41l4 10h455l-4 -10
q-139 -23 -139 -101q0 -27 16 -81l166 -517l371 523q32 56 32 98q0 64 -106 78z" />
    <glyph glyph-name="brokenbar" unicode="&#xa6;" horiz-adv-x="432" 
d="M297 801h-45l139 651h45zM63 -299h-45l138 649h45z" />
    <glyph glyph-name="section" unicode="&#xa7;" horiz-adv-x="980" 
d="M711 1475q164 0 272 -54l-31 -276h-4q-5 150 -63 223q-61 76 -211 76q-129 0 -220.5 -74t-91.5 -178q0 -72 60 -119.5t196 -103.5q144 -59 212.5 -120t68.5 -155q0 -104 -60 -195.5t-161 -144.5q110 -77 110 -188q0 -168 -138.5 -285t-336.5 -117q-205 0 -317 68l35 307
h2q21 -183 73 -252q31 -42 95 -67t143 -25q149 0 246.5 80.5t97.5 204.5q0 81 -64.5 134.5t-203.5 109.5q-137 54 -203.5 112t-66.5 146q0 107 70 195.5t186 133.5q-144 77 -144 201q0 152 130.5 257.5t318.5 105.5zM801 610q0 81 -64.5 134.5t-204.5 107.5q-65 26 -96 41
q-83 -29 -134.5 -92.5t-51.5 -138.5q0 -71 61.5 -119.5t196.5 -102.5q102 -43 143 -69q69 38 109.5 102t40.5 137z" />
    <glyph glyph-name="dieresis" unicode="&#xa8;" horiz-adv-x="737" 
d="M334 1276q-51 0 -85 34t-34 85q0 49 34 81.5t85 32.5q50 0 85.5 -32.5t35.5 -81.5q0 -50 -35.5 -84.5t-85.5 -34.5zM748 1276q-51 0 -86 34t-35 85q0 49 35 81.5t86 32.5q50 0 84 -32.5t34 -81.5q0 -51 -34 -85t-84 -34z" />
    <glyph glyph-name="copyright" unicode="&#xa9;" horiz-adv-x="1843" 
d="M866 -170q-153 0 -288.5 57t-231.5 153.5t-151.5 229.5t-55.5 281q0 173 70 332t187.5 274.5t281 184.5t342.5 69q153 0 288.5 -57t230.5 -153.5t150.5 -229.5t55.5 -281q0 -172 -69.5 -330.5t-187 -274.5t-280.5 -185.5t-342 -69.5zM868 -129q171 0 326.5 65.5
t266.5 175.5t177 260t66 312q0 142 -53.5 269t-145 218.5t-219 145t-270.5 53.5q-172 0 -327 -65.5t-266 -175t-176 -260t-65 -314.5q0 -142 53 -269t144.5 -218t218.5 -144t270 -53zM874 86q-166 0 -261 110t-95 302q0 177 63.5 330t177.5 246t251 93q151 0 236 -86.5
t85 -226.5q0 -69 -25.5 -112.5t-76.5 -43.5q-33 0 -55.5 20.5t-22.5 53.5q0 35 31.5 76.5t31.5 83.5q0 95 -56 149t-159 54q-109 0 -194 -72t-130.5 -193t-45.5 -268q0 -178 83.5 -289.5t237.5 -111.5q104 0 192.5 66.5t137.5 197.5l12 -4q-55 -183 -164 -279t-254 -96z" />
    <glyph glyph-name="ordfeminine" unicode="&#xaa;" horiz-adv-x="727" 
d="M762 1122l4 -2q-74 -196 -174 -196q-43 0 -62.5 26.5t-11.5 71.5l25 133q-92 -231 -201 -231q-63 0 -97 42.5t-34 120.5q0 148 86 262.5t199 114.5q66 0 92 -57l4 29q61 3 113 39h2l-76 -441q-5 -39 22 -39q29 0 62.5 44t46.5 83zM389 991q42 0 87 63t75 148l29 164
q-20 78 -80 78q-72 0 -128.5 -99.5t-56.5 -226.5q0 -60 20 -93.5t54 -33.5z" />
    <glyph glyph-name="guillemotleft" unicode="&#xab;" horiz-adv-x="1036" 
d="M633 983h29q-169 -243 -422 -448q156 -189 229 -457h-29q-64 130 -140 236t-181 200l8 33q298 202 506 436zM973 983h28q-170 -244 -421 -448q156 -189 229 -457h-29q-64 130 -140 236t-181 200l8 33q298 202 506 436z" />
    <glyph glyph-name="registered" unicode="&#xae;" horiz-adv-x="1220" 
d="M614 475q-184 0 -295.5 113.5t-111.5 288.5q0 151 79 280.5t210 204t280 74.5q185 0 296.5 -112.5t111.5 -287.5q0 -152 -76 -281t-207 -204.5t-287 -75.5zM621 514q101 0 197 40.5t167 108.5t114.5 163.5t43.5 199.5q0 161 -102.5 266t-272.5 105q-135 0 -254.5 -68
t-192.5 -187t-73 -259q0 -161 102.5 -265t270.5 -104zM616 682h-262l2 8q41 3 61 22.5t29 65.5l80 377q8 35 -5 53t-50 21l2 6h291q101 0 154 -29t53 -96t-59 -110.5t-162 -47.5q68 -9 88 -59l98 -211h-139l-80 186q-13 38 -31.5 51t-50.5 13h-39l-35 -154
q-10 -44 1.5 -64.5t53.5 -23.5v-8zM645 1171l-45 -213h43q98 0 148.5 44t50.5 124q0 86 -92 86h-56q-39 0 -49 -41z" />
    <glyph glyph-name="macron" unicode="&#xaf;" horiz-adv-x="626" 
d="M743 1352h-542l8 43h543z" />
    <glyph glyph-name="degree" unicode="&#xb0;" horiz-adv-x="768" 
d="M467 872q-118 0 -188 71t-70 181q0 147 95 240.5t241 93.5q115 0 186.5 -71.5t71.5 -180.5q0 -143 -93 -238.5t-243 -95.5zM477 928q116 0 190 77.5t74 190.5q0 89 -57.5 148t-151.5 59q-110 0 -186 -76t-76 -192q0 -90 56 -148.5t151 -58.5z" />
    <glyph glyph-name="plusminus" unicode="&#xb1;" horiz-adv-x="1013" 
d="M602 942l-78 -369h371l-8 -43h-373l-78 -372h-45l80 372h-371l9 43h370l80 369h43zM825 8h-786l8 43h787z" />
    <glyph glyph-name="acute" unicode="&#xb4;" horiz-adv-x="471" 
d="M594 1536l-422 -342l-6 4l278 412l150 -43v-31z" />
    <glyph glyph-name="paragraph" unicode="&#xb6;" horiz-adv-x="999" 
d="M936 670l10 -23q-80 -49 -139 -72l-107 -503q-36 -172 -143 -267.5t-258 -95.5q-137 0 -215 69t-78 181q0 84 38 140.5t95 56.5q30 0 48 -16.5t18 -43.5q0 -31 -13 -53.5t-29 -35.5t-29 -41.5t-13 -69.5q0 -67 49.5 -109.5t134.5 -42.5q294 0 365 330l104 489
q-100 -33 -217 -33q-178 0 -284.5 82.5t-106.5 231.5q0 173 99.5 308t280 211t412.5 79l50 227h32l-223 -1053q55 17 119 54zM670 596q57 0 112 10l170 805q-171 -2 -310 -70.5t-217.5 -186t-78.5 -261.5q0 -134 90 -215.5t234 -81.5z" />
    <glyph glyph-name="periodcentered" unicode="&#xb7;" horiz-adv-x="483" 
d="M270 633q-46 0 -76 29.5t-30 76.5q0 54 35.5 90.5t91.5 36.5q50 0 80 -29.5t30 -74.5q0 -56 -35.5 -92.5t-95.5 -36.5z" />
    <glyph glyph-name="cedilla" unicode="&#xb8;" horiz-adv-x="489" 
d="M104 -414q-78 0 -130 37.5t-66 100.5l8 4q38 -78 143 -78q63 0 101.5 32t38.5 89q0 36 -25.5 60t-67.5 24q-23 0 -63 -11l86 164h35l-60 -114q44 14 86 14q62 0 99 -33.5t37 -91.5q0 -95 -63 -146t-159 -51z" />
    <glyph glyph-name="ordmasculine" unicode="&#xba;" horiz-adv-x="638" 
d="M397 924q-80 0 -132 56t-52 146q0 138 83 238t196 100q84 0 136 -56.5t52 -147.5q0 -138 -83 -237t-200 -99zM416 948q43 0 80.5 55t57 130t19.5 145q0 73 -23.5 117.5t-68.5 44.5t-82.5 -53.5t-57 -128.5t-19.5 -146q0 -73 24 -118.5t70 -45.5z" />
    <glyph glyph-name="guillemotright" unicode="&#xbb;" horiz-adv-x="1036" 
d="M70 78h-27q172 246 420 448q-158 192 -227 457h26q64 -130 140.5 -236t183.5 -200l-8 -33q-291 -195 -508 -436zM410 78h-27q172 246 420 448q-160 194 -228 457h27q64 -130 140.5 -236t183.5 -200l-8 -33q-291 -195 -508 -436z" />
    <glyph glyph-name="onequarter" unicode="&#xbc;" horiz-adv-x="1460" 
d="M522 874h-362l4 15q65 3 95 22.5t40 73.5l82 438q12 62 -9.5 83.5t-90.5 17.5l2 14l247 80h21l-125 -633q-9 -52 16 -73t84 -23zM1104 1378l-866 -1302l-23 16l862 1303zM1327 178l-6 -31h-117l-14 -67q-9 -56 12 -83.5t80 -33.5v-10h-362l2 10q67 7 96.5 33t40.5 84
l14 67h-373l7 25l553 508h47l-99 -502h119zM1077 178l72 367l-391 -367h319z" />
    <glyph glyph-name="onehalf" unicode="&#xbd;" horiz-adv-x="1464" 
d="M526 889l-4 -15h-362l4 15q65 3 95 22.5t40 73.5l82 438q12 62 -10 83.5t-92 17.5l2 14l249 80h21l-125 -633q-10 -51 15.5 -72.5t84.5 -23.5zM213 92l864 1303l27 -17l-866 -1302zM1047 178l-170 -112h442l-41 -111l-578 -2l2 10l271 195q53 37 86.5 65.5t66.5 67
t48.5 82t15.5 94.5q0 73 -43 120.5t-115 47.5q-62 0 -107.5 -32.5t-45.5 -82.5q0 -30 36 -59q-26 -47 -75 -47q-23 0 -39.5 17t-16.5 40q0 50 49.5 100t128.5 81.5t160 31.5q100 0 157.5 -43.5t57.5 -116.5q0 -50 -23.5 -98t-70 -93.5t-89 -78t-107.5 -76.5z" />
    <glyph glyph-name="threequarters" unicode="&#xbe;" horiz-adv-x="1636" 
d="M657 1315q59 -24 91 -69t32 -93q0 -123 -111.5 -206t-267.5 -83q-102 0 -164.5 35.5t-62.5 101.5q0 37 25.5 65t60.5 28q48 0 55 -41q-39 -23 -39 -68q0 -42 38 -68t106 -26q100 0 163.5 52.5t63.5 143.5q0 58 -36 98.5t-97 61.5q-88 -32 -113 -39l-6 25q130 37 192 84
t62 121q0 60 -39.5 96.5t-101.5 36.5q-58 0 -95.5 -34.5t-37.5 -80.5q0 -32 20 -55q-25 -37 -76 -37q-24 0 -37.5 12t-13.5 33q0 82 91 141.5t214 59.5q93 0 149 -32.5t56 -96.5q0 -91 -121 -166zM1280 1378l-864 -1302l-25 16l864 1303zM1505 178l-8 -31h-117l-12 -67
q-11 -56 10.5 -83.5t81.5 -33.5v-10h-362v10q67 7 97 33t42 84l12 67h-372l6 25l553 508h47l-97 -502h119zM1255 178l70 367l-389 -367h319z" />
    <glyph glyph-name="questiondown" unicode="&#xbf;" horiz-adv-x="899" 
d="M567 1092q47 0 78 -29.5t31 -75.5q0 -55 -36.5 -92t-92.5 -37q-49 0 -80 30t-31 75q0 56 36 92.5t95 36.5zM485 643h31q-15 -93 -64 -179.5t-106.5 -153t-113.5 -133t-93.5 -147t-36.5 -167.5q2 -98 64 -159.5t166 -61.5q108 0 175.5 61.5t67.5 144.5q0 26 -11 58t-11 49
q0 40 25.5 64t66.5 24q36 0 57 -24t21 -62q0 -144 -115.5 -242t-290.5 -98q-166 0 -261 80t-95 211q0 72 25.5 133.5t67.5 106.5t93.5 86.5t105.5 83.5t101 86.5t83 106t48 132.5z" />
    <glyph glyph-name="Agrave" unicode="&#xc0;" horiz-adv-x="1370" 
d="M1044 1552l-6 -6l-491 191l-6 28l135 127zM840 1464l45 -2l280 -1315q8 -34 15 -53t21.5 -39.5t39 -30.5t62.5 -14l-3 -10h-460l2 10q82 6 120.5 29.5t38.5 77.5q0 15 -6 49l-59 293h-633l-153 -266q-37 -55 -37 -105q0 -34 28 -51.5t95 -26.5l-3 -10h-354l2 10
q76 12 125.5 58.5t97.5 130.5zM926 500l-156 766l-442 -766h598z" />
    <glyph glyph-name="Aacute" unicode="&#xc1;" horiz-adv-x="1370" 
d="M1128 1745l-491 -189l-4 5l368 340l134 -125zM840 1464l45 -2l280 -1315q8 -34 15 -53t21.5 -39.5t39 -30.5t62.5 -14l-3 -10h-460l2 10q82 6 120.5 29.5t38.5 77.5q0 15 -6 49l-59 293h-633l-153 -266q-37 -55 -37 -105q0 -34 28 -51.5t95 -26.5l-3 -10h-354l2 10
q76 12 125.5 58.5t97.5 130.5zM926 500l-156 766l-442 -766h598z" />
    <glyph glyph-name="Acircumflex" unicode="&#xc2;" horiz-adv-x="1370" 
d="M1182 1556l-287 201l-354 -201l-4 5l374 381h17l260 -381zM885 1462l280 -1315q8 -34 15 -53t21.5 -39.5t39 -30.5t62.5 -14l-3 -10h-460l2 10q82 6 120.5 29.5t38.5 77.5q0 15 -6 49l-59 293h-633l-153 -266q-37 -55 -37 -105q0 -34 28 -51.5t95 -26.5l-3 -10h-354l2 10
q76 12 125.5 58.5t97.5 130.5l736 1265zM770 1266l-442 -766h598z" />
    <glyph glyph-name="Atilde" unicode="&#xc3;" horiz-adv-x="1370" 
d="M573 1632l-4 2q6 109 57.5 170.5t125.5 61.5q50 0 102.5 -23t102 -46t92.5 -23q54 0 96.5 29t60.5 85l4 -2q-3 -111 -53.5 -172t-124.5 -61q-51 0 -101.5 23.5t-99 47t-96.5 23.5q-51 0 -96 -29.5t-66 -85.5zM840 1464l45 -2l280 -1315q8 -34 15 -53t21.5 -39.5t39 -30.5
t62.5 -14l-3 -10h-460l2 10q82 6 120.5 29.5t38.5 77.5q0 15 -6 49l-59 293h-633l-153 -266q-37 -55 -37 -105q0 -34 28 -51.5t95 -26.5l-3 -10h-354l2 10q76 12 125.5 58.5t97.5 130.5zM926 500l-156 766l-442 -766h598z" />
    <glyph glyph-name="Adieresis" unicode="&#xc4;" horiz-adv-x="1370" 
d="M670 1614q-51 0 -86 34t-35 83t35 82.5t86 33.5q50 0 84 -33.5t34 -82.5t-34 -83t-84 -34zM1128 1614q-51 0 -85.5 33.5t-34.5 83.5q0 49 34.5 82.5t85.5 33.5q48 0 83.5 -33.5t35.5 -82.5t-35.5 -83t-83.5 -34zM840 1464l45 -2l280 -1315q8 -34 15 -53t21.5 -39.5
t39 -30.5t62.5 -14l-3 -10h-460l2 10q82 6 120.5 29.5t38.5 77.5q0 15 -6 49l-59 293h-633l-153 -266q-37 -55 -37 -105q0 -34 28 -51.5t95 -26.5l-3 -10h-354l2 10q76 12 125.5 58.5t97.5 130.5zM926 500l-156 766l-442 -766h598z" />
    <glyph glyph-name="Aring" unicode="&#xc5;" horiz-adv-x="1370" 
d="M905 1575q-83 0 -141.5 59t-58.5 142q0 82 58.5 140t141.5 58q82 0 140.5 -58t58.5 -140q0 -83 -58.5 -142t-140.5 -59zM905 1628q61 0 104.5 43t43.5 103q0 61 -43 104t-105 43q-61 0 -104 -42.5t-43 -104.5q0 -60 43 -103t104 -43zM840 1464l45 -2l280 -1315
q8 -34 15 -53t21.5 -39.5t39 -30.5t62.5 -14l-3 -10h-460l2 10q82 6 120.5 29.5t38.5 77.5q0 15 -6 49l-59 293h-633l-153 -266q-37 -55 -37 -105q0 -34 28 -51.5t95 -26.5l-3 -10h-354l2 10q76 12 125.5 58.5t97.5 130.5zM926 500l-156 766l-442 -766h598z" />
    <glyph glyph-name="AE" unicode="&#xc6;" horiz-adv-x="2072" 
d="M2071 1452l-39 -399h-11q-3 197 -69 278q-71 82 -230 82h-206q-65 0 -96.5 -20.5t-41.5 -73.5l-104 -541h309q69 0 123 48t74 126h10l-82 -413h-8q12 89 -24.5 143.5t-114.5 54.5h-295l-117 -598q-10 -55 13.5 -77.5t90.5 -22.5h144q271 0 377 92q94 78 204 346h11
l-160 -477h-1012l2 10q146 8 170 137l115 590h-404l-507 -553q-68 -68 -68 -118q0 -25 25 -37t94 -19l-2 -10h-387l2 10q79 10 146 55.5t153 137.5l1063 1149q-6 84 -121 90l2 10h971zM1212 1294l-473 -516h373z" />
    <glyph glyph-name="Ccedilla" unicode="&#xc7;" horiz-adv-x="1370" 
d="M963 1470q237 0 411 -96l-37 -362h-2q-25 211 -108 297q-117 121 -334 121q-133 0 -250 -58.5t-199 -159.5t-129 -240.5t-47 -297.5q0 -257 137 -414.5t371 -157.5q166 0 302 87.5t214 254.5l6 -2q-88 -223 -249 -338.5t-373 -117.5l-47 -92q44 14 86 14q62 0 97.5 -33.5
t35.5 -91.5q0 -96 -62 -146.5t-159 -50.5q-77 0 -129 38t-66 100l8 4q33 -78 144 -78q63 0 101 32t38 89q0 36 -25 60t-67 24q-24 0 -64 -11l74 142q-235 9 -375.5 160.5t-140.5 406.5q0 199 63.5 370t174.5 291t266.5 188t333.5 68z" />
    <glyph glyph-name="Egrave" unicode="&#xc8;" horiz-adv-x="1247" 
d="M1024 1552l-4 -6l-492 191l-6 28l133 127zM1247 1452l-41 -399h-8q-3 197 -72 278q-71 82 -229 82h-205q-64 0 -95.5 -20.5t-41.5 -73.5l-104 -541h309q67 0 120.5 48t75.5 126h9l-80 -413h-8q11 90 -25.5 144t-116.5 54h-293l-116 -598q-10 -55 13 -77.5t89 -22.5h145
q269 0 375 92q44 37 99.5 127.5t107.5 218.5h8l-157 -477h-1012l2 10q146 8 170 137l223 1158q12 65 -14.5 99t-100.5 38l2 10h971z" />
    <glyph glyph-name="Eacute" unicode="&#xc9;" horiz-adv-x="1247" 
d="M1116 1776l-6 -31l-492 -189l-6 5l369 340zM1247 1452l-41 -399h-8q-3 197 -72 278q-71 82 -229 82h-205q-64 0 -95.5 -20.5t-41.5 -73.5l-104 -541h309q67 0 120.5 48t75.5 126h9l-80 -413h-8q11 90 -25.5 144t-116.5 54h-293l-116 -598q-10 -55 13 -77.5t89 -22.5h145
q269 0 375 92q44 37 99.5 127.5t107.5 218.5h8l-157 -477h-1012l2 10q146 8 170 137l223 1158q12 65 -14.5 99t-100.5 38l2 10h971z" />
    <glyph glyph-name="Ecircumflex" unicode="&#xca;" horiz-adv-x="1247" 
d="M1161 1556l-287 201l-352 -201l-6 5l375 381h18l260 -381zM1247 1452l-41 -399h-8q-3 197 -72 278q-71 82 -229 82h-205q-64 0 -95.5 -20.5t-41.5 -73.5l-104 -541h309q67 0 120.5 48t75.5 126h9l-80 -413h-8q11 90 -25.5 144t-116.5 54h-293l-116 -598q-10 -55 13 -77.5
t89 -22.5h145q269 0 375 92q44 37 99.5 127.5t107.5 218.5h8l-157 -477h-1012l2 10q146 8 170 137l223 1158q12 65 -14.5 99t-100.5 38l2 10h971z" />
    <glyph glyph-name="Edieresis" unicode="&#xcb;" horiz-adv-x="1247" 
d="M649 1614q-51 0 -85 33.5t-34 83.5t34 83t85 33q50 0 85.5 -33.5t35.5 -82.5t-35.5 -83t-85.5 -34zM1108 1614q-51 0 -86 34t-35 83t35 82.5t86 33.5q50 0 84.5 -33.5t34.5 -82.5t-34.5 -83t-84.5 -34zM1247 1452l-41 -399h-8q-3 197 -72 278q-71 82 -229 82h-205
q-64 0 -95.5 -20.5t-41.5 -73.5l-104 -541h309q67 0 120.5 48t75.5 126h9l-80 -413h-8q11 90 -25.5 144t-116.5 54h-293l-116 -598q-10 -55 13 -77.5t89 -22.5h145q269 0 375 92q44 37 99.5 127.5t107.5 218.5h8l-157 -477h-1012l2 10q146 8 170 137l223 1158
q12 65 -14.5 99t-100.5 38l2 10h971z" />
    <glyph glyph-name="Igrave" unicode="&#xcc;" horiz-adv-x="636" 
d="M770 1552l-6 -6l-492 191l-6 28l135 127zM446 0h-456l2 10q151 8 174 137l223 1158q26 129 -119 137l2 10h457l-2 -10q-80 -6 -121 -40t-53 -97l-225 -1158q-12 -65 16 -99t105 -38z" />
    <glyph glyph-name="Iacute" unicode="&#xcd;" horiz-adv-x="636" 
d="M797 1745l-492 -189l-4 5l369 340l133 -125zM446 0h-456l2 10q151 8 174 137l223 1158q26 129 -119 137l2 10h457l-2 -10q-80 -6 -121 -40t-53 -97l-225 -1158q-12 -65 16 -99t105 -38z" />
    <glyph glyph-name="Icircumflex" unicode="&#xce;" horiz-adv-x="636" 
d="M569 1942h17l260 -381l-6 -5l-289 201l-352 -201l-4 5zM270 1442l2 10h457l-2 -10q-80 -6 -121 -40t-53 -97l-225 -1158q-12 -65 16 -99t105 -38l-3 -10h-456l2 10q151 8 174 137l223 1158q26 129 -119 137z" />
    <glyph glyph-name="Idieresis" unicode="&#xcf;" horiz-adv-x="636" 
d="M328 1614q-51 0 -86 34t-35 83t35 82.5t86 33.5q48 0 83 -33.5t35 -82.5t-35 -83t-83 -34zM784 1614q-51 0 -85.5 33.5t-34.5 83.5q0 49 34.5 82.5t85.5 33.5q50 0 84.5 -33.5t34.5 -82.5t-34.5 -83t-84.5 -34zM446 0h-456l2 10q151 8 174 137l223 1158q26 129 -119 137
l2 10h457l-2 -10q-80 -6 -121 -40t-53 -97l-225 -1158q-12 -65 16 -99t105 -38z" />
    <glyph glyph-name="Eth" unicode="&#xd0;" horiz-adv-x="1525" 
d="M821 1452q316 0 488 -159.5t172 -436.5q0 -178 -68.5 -335.5t-188 -272.5t-291.5 -181.5t-370 -66.5h-567l2 10q151 9 172 137l109 562h-168v39h176l108 557q12 65 -15.5 99t-103.5 38l3 10h542zM446 39h125q164 0 301.5 63t232.5 174.5t147.5 268t52.5 340.5
q0 241 -129 384.5t-359 143.5h-98q-140 0 -162 -117l-106 -548h313v-39h-322l-106 -547q-11 -61 13 -92t97 -31z" />
    <glyph glyph-name="Ntilde" unicode="&#xd1;" horiz-adv-x="1476" 
d="M662 1632l-5 2q6 109 57.5 170.5t125.5 61.5q51 0 103.5 -23t101.5 -46t92 -23q54 0 96.5 29t60.5 85l4 -2q-3 -111 -53.5 -172t-124.5 -61q-51 0 -101.5 23.5t-99 47t-96.5 23.5q-51 0 -95.5 -29.5t-65.5 -85.5zM1231 1442l2 10h360l-2 -10q-165 -13 -188 -150
l-252 -1292h-59l-660 1307l-221 -1147q-28 -139 131 -150l-2 -10h-360l2 10q161 13 188 150l225 1151q8 50 -22.5 84t-104.5 47l2 10h269l614 -1229l209 1069q24 140 -131 150z" />
    <glyph glyph-name="Ograve" unicode="&#xd2;" horiz-adv-x="1611" 
d="M1165 1552l-6 -6l-491 191l-6 28l135 127zM737 -16q-131 0 -244.5 46t-193.5 126.5t-126 193.5t-46 242q0 175 63.5 336.5t173 282t265 192.5t329.5 72t313.5 -79t218.5 -218t79 -312q0 -175 -63 -336.5t-172 -281.5t-265 -192t-332 -72zM743 20q184 0 335 121t234 319.5
t83 428.5q0 244 -119 396.5t-326 152.5q-181 0 -331 -121t-234 -320t-84 -428q0 -245 118 -397t324 -152z" />
    <glyph glyph-name="Oacute" unicode="&#xd3;" horiz-adv-x="1611" 
d="M1282 1745l-491 -189l-5 5l369 340l133 -125zM737 -16q-131 0 -244.5 46t-193.5 126.5t-126 193.5t-46 242q0 175 63.5 336.5t173 282t265 192.5t329.5 72t313.5 -79t218.5 -218t79 -312q0 -175 -63 -336.5t-172 -281.5t-265 -192t-332 -72zM743 20q184 0 335 121
t234 319.5t83 428.5q0 244 -119 396.5t-326 152.5q-181 0 -331 -121t-234 -320t-84 -428q0 -245 118 -397t324 -152z" />
    <glyph glyph-name="Ocircumflex" unicode="&#xd4;" horiz-adv-x="1611" 
d="M1303 1556l-287 201l-352 -201l-7 5l375 381h19l258 -381zM958 1475q174 0 313.5 -79t218.5 -218t79 -312q0 -175 -63 -336.5t-172 -281.5t-265 -192t-332 -72q-131 0 -244.5 46t-193.5 126.5t-126 193.5t-46 242q0 175 63.5 336.5t173 282t265 192.5t329.5 72zM743 20
q184 0 335 121t234 319.5t83 428.5q0 244 -119 396.5t-326 152.5q-181 0 -331 -121t-234 -320t-84 -428q0 -245 118 -397t324 -152z" />
    <glyph glyph-name="Otilde" unicode="&#xd5;" horiz-adv-x="1611" 
d="M694 1632l-4 2q6 109 57.5 170.5t124.5 61.5q51 0 103.5 -23t101.5 -46t92 -23q54 0 97 29t61 85l4 -2q-3 -111 -53.5 -172t-124.5 -61q-51 0 -101.5 23.5t-99 47t-96.5 23.5q-51 0 -96 -29.5t-66 -85.5zM737 -16q-131 0 -244.5 46t-193.5 126.5t-126 193.5t-46 242
q0 175 63.5 336.5t173 282t265 192.5t329.5 72t313.5 -79t218.5 -218t79 -312q0 -175 -63 -336.5t-172 -281.5t-265 -192t-332 -72zM743 20q184 0 335 121t234 319.5t83 428.5q0 244 -119 396.5t-326 152.5q-181 0 -331 -121t-234 -320t-84 -428q0 -245 118 -397t324 -152z
" />
    <glyph glyph-name="Odieresis" unicode="&#xd6;" horiz-adv-x="1611" 
d="M809 1614q-51 0 -85 33.5t-34 83.5t34 83t85 33q50 0 85.5 -33.5t35.5 -82.5t-35.5 -83t-85.5 -34zM1268 1614q-51 0 -86 34t-35 83t35 82.5t86 33.5q50 0 84 -33.5t34 -82.5t-34 -83t-84 -34zM737 -16q-131 0 -244.5 46t-193.5 126.5t-126 193.5t-46 242
q0 175 63.5 336.5t173 282t265 192.5t329.5 72t313.5 -79t218.5 -218t79 -312q0 -175 -63 -336.5t-172 -281.5t-265 -192t-332 -72zM743 20q184 0 335 121t234 319.5t83 428.5q0 244 -119 396.5t-326 152.5q-181 0 -331 -121t-234 -320t-84 -428q0 -245 118 -397t324 -152z
" />
    <glyph glyph-name="multiply" unicode="&#xd7;" horiz-adv-x="860" 
d="M760 846l26 -33l-319 -262l207 -262l-37 -31l-207 262l-319 -262l-25 33l317 262l-204 260l37 33l206 -262z" />
    <glyph glyph-name="Oslash" unicode="&#xd8;" horiz-adv-x="1611" 
d="M1331 1554l-82 -147q148 -74 234 -217t86 -324q0 -175 -63 -336.5t-172 -281.5t-265 -192t-332 -72q-135 0 -250 47l-84 -152l-38 21l84 149q-149 74 -235.5 218t-86.5 325q0 175 63.5 336.5t173 282t265 192.5t329.5 72q137 0 252 -50l82 148zM301 569q0 -151 46 -269.5
t134 -190.5l701 1263q-101 66 -232 66q-181 0 -331 -121t-234 -320t-84 -428zM743 20q184 0 335 121t234 319.5t83 428.5q0 150 -46 268.5t-132 190.5l-701 -1264q98 -64 227 -64z" />
    <glyph glyph-name="Ugrave" unicode="&#xd9;" horiz-adv-x="1445" 
d="M1153 1552l-4 -6l-492 191l-6 28l133 127zM672 -16q-266 0 -390 138t-73 408l151 775q25 129 -120 137l2 10h456l-2 -10q-78 -4 -120 -38t-54 -99l-157 -809q-42 -228 52 -347.5t296 -119.5q185 0 312.5 122.5t172.5 354.5l150 774q13 66 -14.5 109.5t-100.5 52.5l2 10
h334l-2 -10q-148 -20 -178 -162l-150 -774q-49 -253 -189.5 -387.5t-377.5 -134.5z" />
    <glyph glyph-name="Uacute" unicode="&#xda;" horiz-adv-x="1445" 
d="M1239 1745l-491 -189l-7 5l369 340l135 -125zM672 -16q-266 0 -390 138t-73 408l151 775q25 129 -120 137l2 10h456l-2 -10q-78 -4 -120 -38t-54 -99l-157 -809q-42 -228 52 -347.5t296 -119.5q185 0 312.5 122.5t172.5 354.5l150 774q13 66 -14.5 109.5t-100.5 52.5
l2 10h334l-2 -10q-148 -20 -178 -162l-150 -774q-49 -253 -189.5 -387.5t-377.5 -134.5z" />
    <glyph glyph-name="Ucircumflex" unicode="&#xdb;" horiz-adv-x="1445" 
d="M1290 1556l-286 201l-353 -201l-6 5l375 381h18l260 -381zM1233 1442l2 10h334l-2 -10q-148 -20 -178 -162l-150 -774q-49 -253 -189.5 -387.5t-377.5 -134.5q-266 0 -390 138t-73 408l151 775q25 129 -120 137l2 10h456l-2 -10q-78 -4 -120 -38t-54 -99l-157 -809
q-42 -228 52 -347.5t296 -119.5q185 0 312.5 122.5t172.5 354.5l150 774q13 66 -14.5 109.5t-100.5 52.5z" />
    <glyph glyph-name="Udieresis" unicode="&#xdc;" horiz-adv-x="1445" 
d="M778 1614q-51 0 -85 33.5t-34 83.5t34 83t85 33q50 0 85.5 -33.5t35.5 -82.5t-35.5 -83t-85.5 -34zM1237 1614q-51 0 -86 34t-35 83t35 82.5t86 33.5q50 0 84.5 -33.5t34.5 -82.5t-34.5 -83t-84.5 -34zM672 -16q-266 0 -390 138t-73 408l151 775q25 129 -120 137l2 10
h456l-2 -10q-78 -4 -120 -38t-54 -99l-157 -809q-42 -228 52 -347.5t296 -119.5q185 0 312.5 122.5t172.5 354.5l150 774q13 66 -14.5 109.5t-100.5 52.5l2 10h334l-2 -10q-148 -20 -178 -162l-150 -774q-49 -253 -189.5 -387.5t-377.5 -134.5z" />
    <glyph glyph-name="Yacute" unicode="&#xdd;" horiz-adv-x="1269" 
d="M1108 1745l-492 -189l-4 5l369 340l133 -125zM1106 1442l2 10h356l-2 -10q-128 -26 -239 -174l-484 -650l-92 -471q-27 -129 121 -137l-2 -10h-457l2 10q83 4 122 39t50 98l92 461l-260 697q-25 67 -53 96.5t-90 40.5l2 10h449l-2 -10q-44 -9 -72.5 -23.5t-41.5 -31
t-15.5 -39t1.5 -41.5t13 -45l221 -596l444 600q34 47 43 79.5t-16 59t-92 37.5z" />
    <glyph glyph-name="Thorn" unicode="&#xde;" horiz-adv-x="1277" 
d="M526 1169h215q243 0 374.5 -93.5t131.5 -270.5q0 -246 -202.5 -383t-546.5 -137h-144l-26 -138q-12 -65 16 -99t105 -38l-3 -10h-456l2 10q151 8 174 137l223 1158q26 129 -119 137l2 10h457l-2 -10q-80 -6 -121 -40t-53 -97zM362 326h144q267 0 418 128t151 365
q0 141 -91 227.5t-275 86.5h-189z" />
    <glyph glyph-name="germandbls" unicode="&#xdf;" horiz-adv-x="1216" 
d="M940 657q106 -58 152.5 -124.5t46.5 -157.5q0 -173 -111.5 -281t-286.5 -108q-177 0 -290 73l34 322h7q6 -178 59 -256q32 -50 92.5 -77.5t136.5 -27.5q117 0 188.5 66t71.5 176q0 66 -39.5 116t-132.5 99q-127 61 -180 119.5t-53 151.5q0 49 15 91t45.5 76.5t63 61.5
t79.5 57q87 60 131.5 119t44.5 135q0 93 -63.5 145t-174.5 52q-124 0 -207 -71.5t-108 -199.5l-211 -1079q-12 -62 21.5 -91.5t125.5 -35.5l-2 -8h-450v8q133 9 155 127l197 987q35 180 162 284.5t313 104.5q125 0 198.5 -57.5t73.5 -163.5q0 -89 -47.5 -150t-140.5 -126
q-57 -43 -87 -80t-30 -86q0 -52 40 -88t161 -103z" />
    <glyph glyph-name="agrave" unicode="&#xe0;" horiz-adv-x="1126" 
d="M551 1620l248 -422l-6 -4l-435 342v31zM1108 354l10 -2q-14 -38 -21.5 -58t-27.5 -65t-36 -72t-42.5 -64t-52 -57.5t-60 -36t-71.5 -15.5q-77 0 -105.5 53t-13.5 137l51 295q-29 -75 -57.5 -137t-70 -129.5t-85 -113t-101 -75.5t-118.5 -30q-108 0 -178 82.5t-70 234.5
q0 145 47 286t123.5 245.5t177.5 168.5t203 64q70 0 125 -31.5t88 -81.5l8 43q95 19 162 78h4l-151 -883q-18 -106 47 -106q113 0 215 270zM752 543l63 362q-29 60 -81.5 95.5t-121.5 35.5q-103 0 -196.5 -93.5t-151 -251t-57.5 -333.5q0 -142 49 -210t129 -68
q55 0 109.5 40t101 110.5t84 146.5t72.5 166z" />
    <glyph glyph-name="aacute" unicode="&#xe1;" horiz-adv-x="1126" 
d="M913 1567v-31l-421 -342l-7 4l279 412zM1108 354l10 -2q-14 -38 -21.5 -58t-27.5 -65t-36 -72t-42.5 -64t-52 -57.5t-60 -36t-71.5 -15.5q-77 0 -105.5 53t-13.5 137l51 295q-29 -75 -57.5 -137t-70 -129.5t-85 -113t-101 -75.5t-118.5 -30q-108 0 -178 82.5t-70 234.5
q0 145 47 286t123.5 245.5t177.5 168.5t203 64q70 0 125 -31.5t88 -81.5l8 43q95 19 162 78h4l-151 -883q-18 -106 47 -106q113 0 215 270zM752 543l63 362q-29 60 -81.5 95.5t-121.5 35.5q-103 0 -196.5 -93.5t-151 -251t-57.5 -333.5q0 -142 49 -210t129 -68
q55 0 109.5 40t101 110.5t84 146.5t72.5 166z" />
    <glyph glyph-name="acircumflex" unicode="&#xe2;" horiz-adv-x="1126" 
d="M991 1192l-305 225l-344 -225l-4 4l367 401h18l274 -401zM1108 354l10 -2q-14 -38 -21.5 -58t-27.5 -65t-36 -72t-42.5 -64t-52 -57.5t-60 -36t-71.5 -15.5q-77 0 -105.5 53t-13.5 137l51 295q-29 -75 -57.5 -137t-70 -129.5t-85 -113t-101 -75.5t-118.5 -30
q-108 0 -178 82.5t-70 234.5q0 145 47 286t123.5 245.5t177.5 168.5t203 64q70 0 125 -31.5t88 -81.5l8 43q95 19 162 78h4l-151 -883q-18 -106 47 -106q113 0 215 270zM752 543l63 362q-29 60 -81.5 95.5t-121.5 35.5q-103 0 -196.5 -93.5t-151 -251t-57.5 -333.5
q0 -142 49 -210t129 -68q55 0 109.5 40t101 110.5t84 146.5t72.5 166z" />
    <glyph glyph-name="atilde" unicode="&#xe3;" horiz-adv-x="1126" 
d="M530 1391q-51 0 -95.5 -29.5t-65.5 -85.5l-4 2q4 109 55.5 171t124.5 62q51 0 103.5 -23.5t102 -47t93.5 -23.5q52 0 95 29.5t62 85.5l5 -2q-4 -110 -55 -171t-126 -61q-61 0 -149.5 46.5t-145.5 46.5zM1108 354l10 -2q-14 -38 -21.5 -58t-27.5 -65t-36 -72t-42.5 -64
t-52 -57.5t-60 -36t-71.5 -15.5q-77 0 -105.5 53t-13.5 137l51 295q-29 -75 -57.5 -137t-70 -129.5t-85 -113t-101 -75.5t-118.5 -30q-108 0 -178 82.5t-70 234.5q0 145 47 286t123.5 245.5t177.5 168.5t203 64q70 0 125 -31.5t88 -81.5l8 43q95 19 162 78h4l-151 -883
q-18 -106 47 -106q113 0 215 270zM752 543l63 362q-29 60 -81.5 95.5t-121.5 35.5q-103 0 -196.5 -93.5t-151 -251t-57.5 -333.5q0 -142 49 -210t129 -68q55 0 109.5 40t101 110.5t84 146.5t72.5 166z" />
    <glyph glyph-name="adieresis" unicode="&#xe4;" horiz-adv-x="1126" 
d="M489 1276q-51 0 -85.5 34t-34.5 85q0 49 34.5 81.5t85.5 32.5q50 0 84.5 -32.5t34.5 -81.5q0 -51 -34.5 -85t-84.5 -34zM903 1276q-51 0 -86 34t-35 85q0 49 35 81.5t86 32.5q48 0 83.5 -32.5t35.5 -81.5q0 -50 -35.5 -84.5t-83.5 -34.5zM1108 354l10 -2
q-14 -38 -21.5 -58t-27.5 -65t-36 -72t-42.5 -64t-52 -57.5t-60 -36t-71.5 -15.5q-77 0 -105.5 53t-13.5 137l51 295q-29 -75 -57.5 -137t-70 -129.5t-85 -113t-101 -75.5t-118.5 -30q-108 0 -178 82.5t-70 234.5q0 145 47 286t123.5 245.5t177.5 168.5t203 64
q70 0 125 -31.5t88 -81.5l8 43q95 19 162 78h4l-151 -883q-18 -106 47 -106q113 0 215 270zM752 543l63 362q-29 60 -81.5 95.5t-121.5 35.5q-103 0 -196.5 -93.5t-151 -251t-57.5 -333.5q0 -142 49 -210t129 -68q55 0 109.5 40t101 110.5t84 146.5t72.5 166z" />
    <glyph glyph-name="aring" unicode="&#xe5;" horiz-adv-x="1126" 
d="M653 1188q-83 0 -141.5 59t-58.5 142q0 82 58.5 140t141.5 58q82 0 140.5 -58t58.5 -140q0 -83 -58.5 -142t-140.5 -59zM653 1534q-61 0 -104 -43t-43 -105q0 -60 43 -102.5t104 -42.5t104.5 42.5t43.5 102.5q0 62 -43.5 105t-104.5 43zM1108 354l10 -2
q-14 -38 -21.5 -58t-27.5 -65t-36 -72t-42.5 -64t-52 -57.5t-60 -36t-71.5 -15.5q-77 0 -105.5 53t-13.5 137l51 295q-29 -75 -57.5 -137t-70 -129.5t-85 -113t-101 -75.5t-118.5 -30q-108 0 -178 82.5t-70 234.5q0 145 47 286t123.5 245.5t177.5 168.5t203 64
q70 0 125 -31.5t88 -81.5l8 43q95 19 162 78h4l-151 -883q-18 -106 47 -106q113 0 215 270zM752 543l63 362q-29 60 -81.5 95.5t-121.5 35.5q-103 0 -196.5 -93.5t-151 -251t-57.5 -333.5q0 -142 49 -210t129 -68q55 0 109.5 40t101 110.5t84 146.5t72.5 166z" />
    <glyph glyph-name="ae" unicode="&#xe6;" horiz-adv-x="1509" 
d="M1425 375l11 -4q-54 -181 -162.5 -284t-263.5 -103q-160 0 -248 110t-88 287q-156 -397 -373 -397q-107 0 -174.5 82t-67.5 235q0 145 47.5 286t123.5 245.5t178 168.5t206 64q163 0 258 -141q138 141 306 141q108 0 175.5 -58t67.5 -157q0 -77 -38 -144t-100 -114.5
t-145 -84.5t-169.5 -58t-177.5 -31q13 -141 87 -230.5t205 -89.5q116 0 204 72.5t138 204.5zM379 80q56 0 114.5 52.5t102.5 127.5t80 168q6 131 52.5 255.5t123.5 217.5q-87 135 -236 135q-105 0 -199.5 -93.5t-152 -251t-57.5 -333.5q0 -143 46 -210.5t126 -67.5z
M1112 1020q-127 -2 -226.5 -151t-99.5 -384v-32q241 25 369.5 118.5t128.5 241.5q0 103 -51.5 156t-120.5 51z" />
    <glyph glyph-name="ccedilla" unicode="&#xe7;" horiz-adv-x="944" 
d="M506 98q105 0 194 66.5t136 197.5l12 -4q-55 -182 -164 -278t-252 -96h-2l-47 -90q44 14 84 14q63 0 99 -33.5t36 -91.5q0 -96 -62 -146.5t-159 -50.5q-77 0 -129 38t-66 100l7 4q38 -78 145 -78q63 0 101 32t38 89q0 36 -25.5 60t-68.5 24q-21 0 -64 -11l74 142
q-149 12 -233 120t-84 289q0 177 63 330.5t176.5 246.5t251.5 93q150 0 235 -86.5t85 -226.5q0 -70 -25 -113t-78 -43q-33 0 -55 20.5t-22 53.5q0 35 31.5 76t31.5 83q0 96 -56 150.5t-159 54.5q-109 0 -194.5 -72.5t-131 -194t-45.5 -267.5q0 -177 84.5 -289.5
t237.5 -112.5z" />
    <glyph glyph-name="egrave" unicode="&#xe8;" horiz-adv-x="907" 
d="M432 1620l248 -422l-6 -4l-434 342v31zM823 375l11 -4q-54 -181 -162.5 -284t-263.5 -103q-160 0 -248 110.5t-88 288.5q0 101 23.5 200.5t68.5 186t105.5 153t139.5 104.5t166 38q110 0 177 -57t67 -158q0 -77 -38 -144t-100 -114.5t-145.5 -84.5t-170 -58t-177.5 -31
q13 -141 87.5 -230.5t205.5 -89.5q116 0 204 72.5t138 204.5zM510 1020q-127 -2 -226.5 -151t-99.5 -384v-32q138 14 249 60t180 126t69 180q0 95 -52.5 149t-119.5 52z" />
    <glyph glyph-name="eacute" unicode="&#xe9;" horiz-adv-x="907" 
d="M795 1567v-31l-422 -342l-4 4l278 412zM823 375l11 -4q-54 -181 -162.5 -284t-263.5 -103q-160 0 -248 110.5t-88 288.5q0 101 23.5 200.5t68.5 186t105.5 153t139.5 104.5t166 38q110 0 177 -57t67 -158q0 -77 -38 -144t-100 -114.5t-145.5 -84.5t-170 -58t-177.5 -31
q13 -141 87.5 -230.5t205.5 -89.5q116 0 204 72.5t138 204.5zM510 1020q-127 -2 -226.5 -151t-99.5 -384v-32q138 14 249 60t180 126t69 180q0 95 -52.5 149t-119.5 52z" />
    <glyph glyph-name="ecircumflex" unicode="&#xea;" horiz-adv-x="907" 
d="M588 1597h16l277 -401l-7 -4l-305 225l-344 -225l-4 4zM481 98q116 0 204 72.5t138 204.5l11 -4q-54 -181 -162.5 -284t-263.5 -103q-160 0 -248 110.5t-88 288.5q0 101 23.5 200.5t68.5 186t105.5 153t139.5 104.5t166 38q110 0 177 -57t67 -158q0 -77 -38 -144
t-100 -114.5t-145.5 -84.5t-170 -58t-177.5 -31q13 -141 87.5 -230.5t205.5 -89.5zM510 1020q-127 -2 -226.5 -151t-99.5 -384v-32q138 14 249 60t180 126t69 180q0 95 -52.5 149t-119.5 52z" />
    <glyph glyph-name="edieresis" unicode="&#xeb;" horiz-adv-x="907" 
d="M373 1276q-51 0 -86 34t-35 85q0 49 35 81.5t86 32.5q48 0 83.5 -32.5t35.5 -81.5q0 -50 -35.5 -84.5t-83.5 -34.5zM784 1509q50 0 84.5 -32.5t34.5 -81.5q0 -51 -34.5 -85t-84.5 -34q-51 0 -85.5 34t-34.5 85q0 49 34.5 81.5t85.5 32.5zM481 98q116 0 204 72.5
t138 204.5l11 -4q-54 -181 -162.5 -284t-263.5 -103q-160 0 -248 110.5t-88 288.5q0 101 23.5 200.5t68.5 186t105.5 153t139.5 104.5t166 38q110 0 177 -57t67 -158q0 -77 -38 -144t-100 -114.5t-145.5 -84.5t-170 -58t-177.5 -31q13 -141 87.5 -230.5t205.5 -89.5z
M510 1020q-127 -2 -226.5 -151t-99.5 -384v-32q138 14 249 60t180 126t69 180q0 95 -52.5 149t-119.5 52z" />
    <glyph glyph-name="igrave" unicode="&#xec;" horiz-adv-x="608" 
d="M500 1198l-6 -4l-435 342v31l193 53zM285 -16q-74 0 -103.5 50.5t-15.5 139.5l121 678q19 113 -58 113q-55 0 -107.5 -67t-88.5 -150l-10 2q126 315 305 315q73 0 103 -49.5t13 -141.5l-120 -677q-9 -57 2 -85t47 -28q44 0 90.5 51t74 106.5t48.5 112.5l10 -2
q-120 -368 -311 -368z" />
    <glyph glyph-name="iacute" unicode="&#xed;" horiz-adv-x="608" 
d="M635 1536l-422 -342l-6 4l280 412l148 -43v-31zM285 -16q-74 0 -103.5 50.5t-15.5 139.5l121 678q19 113 -58 113q-55 0 -107.5 -67t-88.5 -150l-10 2q126 315 305 315q73 0 103 -49.5t13 -141.5l-120 -677q-9 -57 2 -85t47 -28q44 0 90.5 51t74 106.5t48.5 112.5l10 -2
q-120 -368 -311 -368z" />
    <glyph glyph-name="icircumflex" unicode="&#xee;" horiz-adv-x="608" 
d="M408 1597h16l276 -401l-6 -4l-305 227l-344 -227l-6 4zM373 84q44 0 90.5 51t74 106.5t48.5 112.5l10 -2q-120 -368 -311 -368q-74 0 -103.5 50.5t-15.5 139.5l121 678q19 113 -58 113q-55 0 -107.5 -67t-88.5 -150l-10 2q126 315 305 315q73 0 103 -49.5t13 -141.5
l-120 -677q-9 -57 2 -85t47 -28z" />
    <glyph glyph-name="idieresis" unicode="&#xef;" horiz-adv-x="608" 
d="M190 1276q-51 0 -84.5 34t-33.5 85q0 49 33.5 81.5t84.5 32.5q50 0 85.5 -32.5t35.5 -81.5q0 -50 -35.5 -84.5t-85.5 -34.5zM604 1276q-51 0 -86 34t-35 85q0 49 35 81.5t86 32.5q50 0 84.5 -32.5t34.5 -81.5q0 -51 -34.5 -85t-84.5 -34zM285 -16q-74 0 -103.5 50.5
t-15.5 139.5l121 678q19 113 -58 113q-55 0 -107.5 -67t-88.5 -150l-10 2q126 315 305 315q73 0 103 -49.5t13 -141.5l-120 -677q-9 -57 2 -85t47 -28q44 0 90.5 51t74 106.5t48.5 112.5l10 -2q-120 -368 -311 -368z" />
    <glyph glyph-name="eth" unicode="&#xf0;" horiz-adv-x="1060" 
d="M989 649v-2q0 -137 -43.5 -260.5t-116.5 -211.5t-173 -139.5t-210 -51.5q-166 0 -269 114.5t-103 300.5q0 181 73 335t196.5 242.5t266.5 88.5q94 0 174 -39q-43 138 -133 268l-278 -100l-13 35l269 96q-68 89 -160 172l18 8q130 -65 220 -149l268 96l12 -35l-250 -90
q241 -244 252 -659v-19zM465 18q103 0 190 101t134 250t47 301q0 161 -60.5 259.5t-167.5 98.5q-80 0 -152.5 -58t-121.5 -150.5t-78 -208.5t-29 -232q0 -161 63 -261t175 -100z" />
    <glyph glyph-name="ntilde" unicode="&#xf1;" horiz-adv-x="1212" 
d="M434 1276l-4 2q6 110 57 171.5t125 61.5q51 0 103.5 -23.5t101.5 -47t92 -23.5q54 0 97 29.5t61 85.5l4 -2q-3 -110 -53.5 -171t-124.5 -61q-41 0 -82 14.5t-69.5 32t-68 32t-77.5 14.5q-51 0 -96 -29.5t-66 -85.5zM1192 354l10 -2q-17 -49 -32 -87.5t-45 -95t-61 -93.5
t-77 -64.5t-96 -27.5q-75 0 -104 51.5t-15 138.5l102 580q20 113 -14 166t-100 53q-174 0 -379 -467l-90 -506h-154l152 852q18 113 -58 113q-94 0 -196 -217l-10 2q16 38 28 63.5t34 67t45 70t53 57t67 43t78 14.5q74 0 102.5 -50t13.5 -141l-51 -290q212 481 453 481
q107 0 158.5 -73.5t25.5 -225.5l-102 -573q-9 -56 1.5 -82.5t47.5 -26.5q36 0 73 31.5t65 80t46 87t29 71.5z" />
    <glyph glyph-name="ograve" unicode="&#xf2;" horiz-adv-x="1058" 
d="M776 1198l-6 -4l-434 342v31l192 53zM446 -16q-166 0 -269 114.5t-103 300.5q0 181 73 335t196.5 242.5t266.5 88.5q170 0 274.5 -116t104.5 -302q0 -137 -43.5 -260.5t-116.5 -211.5t-173 -139.5t-210 -51.5zM465 18q103 0 190 101t134 250t47 301q0 161 -60.5 259.5
t-167.5 98.5q-80 0 -152.5 -58t-121.5 -150.5t-78 -208.5t-29 -232q0 -161 63 -261t175 -100z" />
    <glyph glyph-name="oacute" unicode="&#xf3;" horiz-adv-x="1058" 
d="M891 1536l-422 -342l-6 4l280 412l148 -43v-31zM446 -16q-166 0 -269 114.5t-103 300.5q0 181 73 335t196.5 242.5t266.5 88.5q170 0 274.5 -116t104.5 -302q0 -137 -43.5 -260.5t-116.5 -211.5t-173 -139.5t-210 -51.5zM465 18q103 0 190 101t134 250t47 301
q0 161 -60.5 259.5t-167.5 98.5q-80 0 -152.5 -58t-121.5 -150.5t-78 -208.5t-29 -232q0 -161 63 -261t175 -100z" />
    <glyph glyph-name="ocircumflex" unicode="&#xf4;" horiz-adv-x="1058" 
d="M985 1192l-305 225l-344 -225l-4 4l366 401h17l276 -401zM610 1065q170 0 274.5 -116t104.5 -302q0 -137 -43.5 -260.5t-116.5 -211.5t-173 -139.5t-210 -51.5q-166 0 -269 114.5t-103 300.5q0 181 73 335t196.5 242.5t266.5 88.5zM465 18q103 0 190 101t134 250t47 301
q0 161 -60.5 259.5t-167.5 98.5q-80 0 -152.5 -58t-121.5 -150.5t-78 -208.5t-29 -232q0 -161 63 -261t175 -100z" />
    <glyph glyph-name="otilde" unicode="&#xf5;" horiz-adv-x="1058" 
d="M346 1276l-4 2q6 110 57 171.5t125 61.5q50 0 102.5 -23.5t102 -47t92.5 -23.5q54 0 97 29.5t61 85.5l4 -2q-3 -110 -53.5 -171t-124.5 -61q-41 0 -82 14.5t-69.5 32t-68 32t-77.5 14.5q-51 0 -96 -29.5t-66 -85.5zM446 -16q-166 0 -269 114.5t-103 300.5q0 181 73 335
t196.5 242.5t266.5 88.5q170 0 274.5 -116t104.5 -302q0 -137 -43.5 -260.5t-116.5 -211.5t-173 -139.5t-210 -51.5zM465 18q103 0 190 101t134 250t47 301q0 161 -60.5 259.5t-167.5 98.5q-80 0 -152.5 -58t-121.5 -150.5t-78 -208.5t-29 -232q0 -161 63 -261t175 -100z
" />
    <glyph glyph-name="odieresis" unicode="&#xf6;" horiz-adv-x="1058" 
d="M467 1276q-51 0 -86 34t-35 85q0 49 35 81.5t86 32.5q50 0 84.5 -32.5t34.5 -81.5q0 -51 -34.5 -85t-84.5 -34zM881 1276q-51 0 -86 34t-35 85q0 49 35 81.5t86 32.5q50 0 84 -32.5t34 -81.5q0 -51 -34 -85t-84 -34zM446 -16q-166 0 -269 114.5t-103 300.5q0 181 73 335
t196.5 242.5t266.5 88.5q170 0 274.5 -116t104.5 -302q0 -137 -43.5 -260.5t-116.5 -211.5t-173 -139.5t-210 -51.5zM465 18q103 0 190 101t134 250t47 301q0 161 -60.5 259.5t-167.5 98.5q-80 0 -152.5 -58t-121.5 -150.5t-78 -208.5t-29 -232q0 -161 63 -261t175 -100z
" />
    <glyph glyph-name="divide" unicode="&#xf7;" horiz-adv-x="1046" 
d="M567 719q-32 0 -53.5 21t-21.5 53q0 42 32.5 73t75.5 31q32 0 53 -21t21 -53q0 -42 -32 -73t-75 -31zM920 530h-787l8 43h787zM461 207q-32 0 -54 21t-22 53q0 42 33 72t76 30q32 0 52.5 -20t20.5 -52q0 -44 -31.5 -74t-74.5 -30z" />
    <glyph glyph-name="oslash" unicode="&#xf8;" horiz-adv-x="1058" 
d="M985 1094l33 -27l-117 -139q88 -111 88 -281q0 -137 -43.5 -260.5t-116.5 -211.5t-173 -139.5t-210 -51.5q-150 0 -253 98l-109 -131l-35 26l115 138q-90 114 -90 284q0 181 73 335t196.5 242.5t266.5 88.5q160 0 264 -104zM227 379q0 -91 21 -164l555 659
q-28 73 -78 113.5t-117 40.5q-80 0 -152.5 -58t-121.5 -150.5t-78 -208.5t-29 -232zM836 670q0 83 -19 157l-553 -659q30 -71 81.5 -110.5t119.5 -39.5q103 0 190 101t134 250t47 301z" />
    <glyph glyph-name="ugrave" unicode="&#xf9;" horiz-adv-x="1212" 
d="M823 1198l-6 -4l-434 342v31l192 53zM1184 354l12 -2q-19 -53 -35 -92t-46 -95.5t-60.5 -92t-75.5 -62t-94 -26.5q-75 0 -104 51.5t-15 138.5l51 291q-212 -481 -452 -481q-107 0 -159 74.5t-24 226.5l99 561q19 119 -56 119q-91 0 -192 -208q-3 -6 -4 -9l-11 2
q18 44 34 78t45.5 81.5t60 78.5t74.5 54t92 23q74 0 102.5 -50t13.5 -141l-102 -577q-20 -114 15 -167.5t100 -53.5q43 0 87.5 28t82.5 71.5t77 108t69 124.5t62 133l89 503h153l-149 -849q-10 -59 1.5 -85t45.5 -26q36 0 72.5 30.5t64.5 78t46 87t30 74.5z" />
    <glyph glyph-name="uacute" unicode="&#xfa;" horiz-adv-x="1212" 
d="M983 1534l-422 -342l-4 4l279 414l147 -45v-31zM1184 354l12 -2q-19 -53 -35 -92t-46 -95.5t-60.5 -92t-75.5 -62t-94 -26.5q-75 0 -104 51.5t-15 138.5l51 291q-212 -481 -452 -481q-107 0 -159 74.5t-24 226.5l99 561q19 119 -56 119q-91 0 -192 -208q-3 -6 -4 -9
l-11 2q18 44 34 78t45.5 81.5t60 78.5t74.5 54t92 23q74 0 102.5 -50t13.5 -141l-102 -577q-20 -114 15 -167.5t100 -53.5q43 0 87.5 28t82.5 71.5t77 108t69 124.5t62 133l89 503h153l-149 -849q-10 -59 1.5 -85t45.5 -26q36 0 72.5 30.5t64.5 78t46 87t30 74.5z" />
    <glyph glyph-name="ucircumflex" unicode="&#xfb;" horiz-adv-x="1212" 
d="M1016 1192l-303 227l-344 -227l-7 4l369 401h17l276 -401zM1184 354l12 -2q-19 -53 -35 -92t-46 -95.5t-60.5 -92t-75.5 -62t-94 -26.5q-75 0 -104 51.5t-15 138.5l51 291q-212 -481 -452 -481q-107 0 -159 74.5t-24 226.5l99 561q19 119 -56 119q-91 0 -192 -208
q-3 -6 -4 -9l-11 2q18 44 34 78t45.5 81.5t60 78.5t74.5 54t92 23q74 0 102.5 -50t13.5 -141l-102 -577q-20 -114 15 -167.5t100 -53.5q43 0 87.5 28t82.5 71.5t77 108t69 124.5t62 133l89 503h153l-149 -849q-10 -59 1.5 -85t45.5 -26q36 0 72.5 30.5t64.5 78t46 87
t30 74.5z" />
    <glyph glyph-name="udieresis" unicode="&#xfc;" horiz-adv-x="1212" 
d="M502 1276q-51 0 -86 34t-35 85q0 49 35 81.5t86 32.5q50 0 84.5 -32.5t34.5 -81.5q0 -51 -34.5 -85t-84.5 -34zM915 1276q-51 0 -85.5 34t-34.5 85q0 49 34.5 81.5t85.5 32.5q50 0 84.5 -32.5t34.5 -81.5q0 -51 -34.5 -85t-84.5 -34zM1184 354l12 -2q-19 -53 -35 -92
t-46 -95.5t-60.5 -92t-75.5 -62t-94 -26.5q-75 0 -104 51.5t-15 138.5l51 291q-212 -481 -452 -481q-107 0 -159 74.5t-24 226.5l99 561q19 119 -56 119q-91 0 -192 -208q-3 -6 -4 -9l-11 2q18 44 34 78t45.5 81.5t60 78.5t74.5 54t92 23q74 0 102.5 -50t13.5 -141
l-102 -577q-20 -114 15 -167.5t100 -53.5q43 0 87.5 28t82.5 71.5t77 108t69 124.5t62 133l89 503h153l-149 -849q-10 -59 1.5 -85t45.5 -26q36 0 72.5 30.5t64.5 78t46 87t30 74.5z" />
    <glyph glyph-name="yacute" unicode="&#xfd;" horiz-adv-x="1044" 
d="M903 1536l-422 -342l-6 4l281 412l147 -43v-31zM940 1063q32 0 51 -20.5t19 -57.5q0 -152 -215 -569q-128 -255 -265 -430q-131 -167 -278.5 -266.5t-355.5 -141.5v125q362 37 571 260l-191 891q-13 68 -32 96.5t-49 28.5q-40 0 -81.5 -54t-80.5 -161h-13
q41 146 107 223.5t149 77.5q30 0 53.5 -11.5t37.5 -27t26 -45.5t18 -52.5t15 -62.5l156 -751q108 151 186 313q121 245 121 457q0 83 -35 135q28 43 86 43z" />
    <glyph glyph-name="thorn" unicode="&#xfe;" horiz-adv-x="1079" 
d="M750 1065q120 0 195 -84.5t75 -251.5q0 -147 -47 -284.5t-124.5 -238t-183 -161.5t-216.5 -61q-137 0 -224 90l-86 -492h-153l293 1667q14 77 -10 117.5t-113 46.5v10q172 27 317 84h6l-164 -923q30 78 59.5 141.5t71 129t85.5 110t100.5 72.5t118.5 28zM457 12
q113 0 209 88.5t151 237t55 321.5q0 162 -55 236t-141 74q-50 0 -98 -29t-85.5 -73t-74.5 -110t-63 -124t-54 -131l-70 -396q48 -51 99 -72.5t127 -21.5z" />
    <glyph glyph-name="ydieresis" unicode="&#xff;" horiz-adv-x="1044" 
d="M479 1276q-51 0 -85 34t-34 85q0 49 34 81.5t85 32.5q50 0 85.5 -32.5t35.5 -81.5q0 -50 -35.5 -84.5t-85.5 -34.5zM893 1276q-51 0 -86 34t-35 85q0 49 35 81.5t86 32.5q50 0 84.5 -32.5t34.5 -81.5q0 -51 -34.5 -85t-84.5 -34zM940 1063q32 0 51 -20.5t19 -57.5
q0 -152 -215 -569q-128 -255 -265 -430q-131 -167 -278.5 -266.5t-355.5 -141.5v125q362 37 571 260l-191 891q-13 68 -32 96.5t-49 28.5q-40 0 -81.5 -54t-80.5 -161h-13q41 146 107 223.5t149 77.5q30 0 53.5 -11.5t37.5 -27t26 -45.5t18 -52.5t15 -62.5l156 -751
q108 151 186 313q121 245 121 457q0 83 -35 135q28 43 86 43z" />
    <glyph glyph-name="Amacron" unicode="&#x100;" horiz-adv-x="1370" 
d="M1184 1733h-543l8 43h543zM840 1464l45 -2l280 -1315q8 -34 15 -53t21.5 -39.5t39 -30.5t62.5 -14l-3 -10h-460l2 10q82 6 120.5 29.5t38.5 77.5q0 15 -6 49l-59 293h-633l-153 -266q-37 -55 -37 -105q0 -34 28 -51.5t95 -26.5l-3 -10h-354l2 10q76 12 125.5 58.5
t97.5 130.5zM926 500l-156 766l-442 -766h598z" />
    <glyph glyph-name="amacron" unicode="&#x101;" horiz-adv-x="1126" 
d="M430 1395h543l-6 -43h-543zM1108 354l10 -2q-14 -38 -21.5 -58t-27.5 -65t-36 -72t-42.5 -64t-52 -57.5t-60 -36t-71.5 -15.5q-77 0 -105.5 53t-13.5 137l51 295q-29 -75 -57.5 -137t-70 -129.5t-85 -113t-101 -75.5t-118.5 -30q-108 0 -178 82.5t-70 234.5q0 145 47 286
t123.5 245.5t177.5 168.5t203 64q70 0 125 -31.5t88 -81.5l8 43q95 19 162 78h4l-151 -883q-18 -106 47 -106q113 0 215 270zM752 543l63 362q-29 60 -81.5 95.5t-121.5 35.5q-103 0 -196.5 -93.5t-151 -251t-57.5 -333.5q0 -142 49 -210t129 -68q55 0 109.5 40t101 110.5
t84 146.5t72.5 166z" />
    <glyph glyph-name="Abreve" unicode="&#x102;" horiz-adv-x="1370" 
d="M887 1567q-146 0 -218.5 99.5t-43.5 256.5l4 2q9 -107 82 -167t192 -60q122 0 214 60.5t130 166.5l4 -2q-31 -165 -122 -260.5t-242 -95.5zM840 1464l45 -2l280 -1315q8 -34 15 -53t21.5 -39.5t39 -30.5t62.5 -14l-3 -10h-460l2 10q82 6 120.5 29.5t38.5 77.5q0 15 -6 49
l-59 293h-633l-153 -266q-37 -55 -37 -105q0 -34 28 -51.5t95 -26.5l-3 -10h-354l2 10q76 12 125.5 58.5t97.5 130.5zM926 500l-156 766l-442 -766h598z" />
    <glyph glyph-name="abreve" unicode="&#x103;" horiz-adv-x="1126" 
d="M643 1214q-124 0 -195 72.5t-73 194.5q0 28 12 98l4 2q5 -107 78.5 -171t200.5 -64q123 0 219 63t137 172l4 -2q-36 -169 -131.5 -267t-255.5 -98zM1108 354l10 -2q-14 -38 -21.5 -58t-27.5 -65t-36 -72t-42.5 -64t-52 -57.5t-60 -36t-71.5 -15.5q-77 0 -105.5 53
t-13.5 137l51 295q-29 -75 -57.5 -137t-70 -129.5t-85 -113t-101 -75.5t-118.5 -30q-108 0 -178 82.5t-70 234.5q0 145 47 286t123.5 245.5t177.5 168.5t203 64q70 0 125 -31.5t88 -81.5l8 43q95 19 162 78h4l-151 -883q-18 -106 47 -106q113 0 215 270zM752 543l63 362
q-29 60 -81.5 95.5t-121.5 35.5q-103 0 -196.5 -93.5t-151 -251t-57.5 -333.5q0 -142 49 -210t129 -68q55 0 109.5 40t101 110.5t84 146.5t72.5 166z" />
    <glyph glyph-name="Aogonek" unicode="&#x104;" horiz-adv-x="1370" 
d="M1300 0h-190q-145 -103 -145 -225q0 -63 33 -93t81 -30q91 0 131 69l9 -4q-22 -71 -77 -108t-124 -37q-78 0 -126 40.5t-48 117.5q0 78 58.5 147t164.5 123h-227l2 10q82 6 120.5 29.5t38.5 77.5q0 15 -6 49l-59 293h-633l-153 -266q-37 -55 -37 -105q0 -34 28 -51.5
t95 -26.5l-3 -10h-354l2 10q76 12 125.5 58.5t97.5 130.5l736 1265l45 -2l280 -1315q8 -34 15 -53t21.5 -39.5t39 -30.5t62.5 -14zM770 1266l-442 -766h598z" />
    <glyph glyph-name="aogonek" unicode="&#x105;" horiz-adv-x="1126" 
d="M842 -348q91 0 131 69l10 -6q-24 -70 -78.5 -106.5t-124.5 -36.5q-77 0 -125.5 40.5t-48.5 115.5q0 74 51.5 140t143.5 116q-73 1 -100 54.5t-13 135.5l51 295q-29 -75 -57.5 -137t-70 -129.5t-85 -113t-101 -75.5t-118.5 -30q-108 0 -178 82.5t-70 234.5q0 145 47 286
t123.5 245.5t177.5 168.5t203 64q70 0 125 -31.5t88 -81.5l8 43q95 19 162 78h4l-151 -883q-18 -106 47 -106q113 0 215 270l10 -2q-15 -40 -19.5 -51.5t-23 -55.5t-30 -65t-34 -58t-42.5 -57.5t-48 -41.5t-57 -31q-137 -100 -137 -219q0 -63 33.5 -92t81.5 -29zM385 80
q55 0 109.5 40t101 110.5t84 146.5t72.5 166l63 362q-29 60 -81.5 95.5t-121.5 35.5q-103 0 -196.5 -93.5t-151 -251t-57.5 -333.5q0 -142 49 -210t129 -68z" />
    <glyph glyph-name="Cacute" unicode="&#x106;" horiz-adv-x="1370" 
d="M1227 1745l-492 -189l-4 5l369 340l133 -125zM670 -14q-246 0 -395.5 152.5t-149.5 414.5q0 199 63.5 370t174.5 291t266.5 188t333.5 68q237 0 411 -96l-37 -362h-2q-25 211 -108 297q-117 121 -334 121q-133 0 -250 -58.5t-199 -159.5t-129 -240.5t-47 -297.5
q0 -257 137 -414.5t371 -157.5q166 0 302 87.5t214 254.5l6 -2q-88 -224 -251 -340t-377 -116z" />
    <glyph glyph-name="cacute" unicode="&#x107;" horiz-adv-x="944" 
d="M856 1536l-422 -342l-6 4l279 412l149 -43v-31zM432 -16q-167 0 -261.5 109.5t-94.5 301.5q0 177 63 330.5t176.5 246.5t251.5 93q150 0 235 -86.5t85 -226.5q0 -70 -25 -113t-78 -43q-33 0 -55 20.5t-22 53.5q0 35 31.5 76t31.5 83q0 96 -56 150.5t-159 54.5
q-109 0 -194.5 -72.5t-131 -194t-45.5 -267.5q0 -177 84.5 -289.5t237.5 -112.5q105 0 194 66.5t136 197.5l12 -4q-55 -182 -164 -278t-252 -96z" />
    <glyph glyph-name="Cdotaccent" unicode="&#x10a;" horiz-adv-x="1370" 
d="M997 1614q-51 0 -85.5 34t-34.5 85q0 49 34.5 81.5t85.5 32.5q50 0 84.5 -32.5t34.5 -81.5q0 -51 -34.5 -85t-84.5 -34zM670 -14q-246 0 -395.5 152.5t-149.5 414.5q0 199 63.5 370t174.5 291t266.5 188t333.5 68q237 0 411 -96l-37 -362h-2q-25 211 -108 297
q-117 121 -334 121q-133 0 -250 -58.5t-199 -159.5t-129 -240.5t-47 -297.5q0 -257 137 -414.5t371 -157.5q166 0 302 87.5t214 254.5l6 -2q-88 -224 -251 -340t-377 -116z" />
    <glyph glyph-name="cdotaccent" unicode="&#x10b;" horiz-adv-x="944" 
d="M637 1276q-51 0 -86 34t-35 85q0 49 35 81.5t86 32.5q50 0 84.5 -32.5t34.5 -81.5q0 -51 -34.5 -85t-84.5 -34zM432 -16q-167 0 -261.5 109.5t-94.5 301.5q0 177 63 330.5t176.5 246.5t251.5 93q150 0 235 -86.5t85 -226.5q0 -70 -25 -113t-78 -43q-33 0 -55 20.5
t-22 53.5q0 35 31.5 76t31.5 83q0 96 -56 150.5t-159 54.5q-109 0 -194.5 -72.5t-131 -194t-45.5 -267.5q0 -177 84.5 -289.5t237.5 -112.5q105 0 194 66.5t136 197.5l12 -4q-55 -182 -164 -278t-252 -96z" />
    <glyph glyph-name="Ccaron" unicode="&#x10c;" horiz-adv-x="1370" 
d="M1335 1946l-374 -381h-17l-260 381l6 4l287 -201l354 201zM963 1470q237 0 411 -96l-37 -362h-2q-25 211 -108 297q-117 121 -334 121q-133 0 -250 -58.5t-199 -159.5t-129 -240.5t-47 -297.5q0 -257 137 -414.5t371 -157.5q166 0 302 87.5t214 254.5l6 -2
q-88 -224 -251 -340t-377 -116q-246 0 -395.5 152.5t-149.5 414.5q0 199 63.5 370t174.5 291t266.5 188t333.5 68z" />
    <glyph glyph-name="ccaron" unicode="&#x10d;" horiz-adv-x="944" 
d="M967 1593l-367 -401h-18l-275 401l6 4l305 -225l345 225zM784 596q-33 0 -55 20.5t-22 53.5q0 35 31.5 76t31.5 83q0 96 -56 150.5t-159 54.5q-109 0 -194.5 -72.5t-131 -194t-45.5 -267.5q0 -177 84.5 -289.5t237.5 -112.5q105 0 194 66.5t136 197.5l12 -4
q-55 -182 -164 -278t-252 -96q-167 0 -261.5 109.5t-94.5 301.5q0 177 63 330.5t176.5 246.5t251.5 93q150 0 235 -86.5t85 -226.5q0 -70 -25 -113t-78 -43z" />
    <glyph glyph-name="Dcaron" unicode="&#x10e;" horiz-adv-x="1519" 
d="M1325 1946l-375 -381h-18l-258 381l6 4l287 -201l352 201zM817 1452q314 0 487 -159.5t173 -436.5q0 -178 -68.5 -335.5t-188 -272.5t-291.5 -181.5t-370 -66.5h-569l2 10q150 8 174 137l223 1158q14 65 -13.5 99t-105.5 38l2 10h545zM440 39h125q219 0 386.5 108
t258 300t90.5 438q0 241 -128.5 384.5t-358.5 143.5h-100q-140 0 -162 -117l-221 -1134q-11 -60 13.5 -91.5t96.5 -31.5z" />
    <glyph glyph-name="dcaron" unicode="&#x10f;" horiz-adv-x="1153" 
d="M1180 1507l176 33l2 -33l-53 -399l-7 -2zM918 84q32 0 64 22.5t55 54t44 72.5t32.5 69t19.5 52l10 -2q-17 -48 -31.5 -85.5t-44.5 -94.5t-61.5 -94.5t-77.5 -65.5t-97 -28q-75 0 -103 53t-13 137l51 293q-30 -77 -57.5 -137t-69 -128t-85 -113t-102.5 -75t-124 -30
q-118 0 -191.5 81.5t-73.5 245.5q0 147 46.5 285.5t124 241.5t184.5 165t223 62q137 0 213 -86l49 276q14 79 -14.5 117t-108.5 41l2 10q188 33 318 84h6l-236 -1314q-18 -109 48 -109zM778 541l70 399q-71 96 -213 96q-89 0 -169.5 -59t-135.5 -153t-87 -211t-32 -232
q0 -301 199 -301q48 0 94 28t82.5 71t73.5 107t63.5 123t54.5 132z" />
    <glyph glyph-name="Dcroat" unicode="&#x110;" horiz-adv-x="1525" 
d="M821 1452q316 0 488 -159.5t172 -436.5q0 -178 -68.5 -335.5t-188 -272.5t-291.5 -181.5t-370 -66.5h-567l2 10q151 9 172 137l109 562h-168v39h176l108 557q12 65 -15.5 99t-103.5 38l3 10h542zM446 39h125q164 0 301.5 63t232.5 174.5t147.5 268t52.5 340.5
q0 241 -129 384.5t-359 143.5h-98q-140 0 -162 -117l-106 -548h313v-39h-322l-106 -547q-11 -61 13 -92t97 -31z" />
    <glyph glyph-name="dcroat" unicode="&#x111;" horiz-adv-x="1153" 
d="M1260 1206h-207l-183 -1013q-18 -109 48 -109q32 0 64 22.5t55 54t44 72.5t32.5 69t19.5 52l10 -2q-17 -48 -31.5 -85.5t-44.5 -94.5t-61.5 -94.5t-77.5 -65.5t-97 -28q-75 0 -103 53t-13 137l51 293q-30 -77 -57.5 -137t-69 -128t-85 -113t-102.5 -75t-124 -30
q-118 0 -191.5 81.5t-73.5 245.5q0 147 46.5 285.5t124 241.5t184.5 165t223 62q137 0 213 -86l41 227h-289v39h295l2 10q14 79 -14.5 117t-108.5 41l2 10q188 33 318 84h6l-47 -262h201v-39zM778 541l70 399q-71 96 -213 96q-89 0 -169.5 -59t-135.5 -153t-87 -211
t-32 -232q0 -301 199 -301q48 0 94 28t82.5 71t73.5 107t63.5 123t54.5 132z" />
    <glyph glyph-name="Emacron" unicode="&#x112;" horiz-adv-x="1247" 
d="M592 1776h543l-7 -43h-542zM1247 1452l-41 -399h-8q-3 197 -72 278q-71 82 -229 82h-205q-64 0 -95.5 -20.5t-41.5 -73.5l-104 -541h309q67 0 120.5 48t75.5 126h9l-80 -413h-8q11 90 -25.5 144t-116.5 54h-293l-116 -598q-10 -55 13 -77.5t89 -22.5h145q269 0 375 92
q44 37 99.5 127.5t107.5 218.5h8l-157 -477h-1012l2 10q146 8 170 137l223 1158q12 65 -14.5 99t-100.5 38l2 10h971z" />
    <glyph glyph-name="emacron" unicode="&#x113;" horiz-adv-x="907" 
d="M338 1352l6 43h543l-6 -43h-543zM481 98q116 0 204 72.5t138 204.5l11 -4q-54 -181 -162.5 -284t-263.5 -103q-160 0 -248 110.5t-88 288.5q0 101 23.5 200.5t68.5 186t105.5 153t139.5 104.5t166 38q110 0 177 -57t67 -158q0 -77 -38 -144t-100 -114.5t-145.5 -84.5
t-170 -58t-177.5 -31q13 -141 87.5 -230.5t205.5 -89.5zM510 1020q-127 -2 -226.5 -151t-99.5 -384v-32q138 14 249 60t180 126t69 180q0 95 -52.5 149t-119.5 52z" />
    <glyph glyph-name="Edotaccent" unicode="&#x116;" horiz-adv-x="1247" 
d="M879 1614q-51 0 -86 34t-35 85q0 49 35 81.5t86 32.5q50 0 84 -32.5t34 -81.5q0 -51 -34 -85t-84 -34zM1247 1452l-41 -399h-8q-3 197 -72 278q-71 82 -229 82h-205q-64 0 -95.5 -20.5t-41.5 -73.5l-104 -541h309q67 0 120.5 48t75.5 126h9l-80 -413h-8q11 90 -25.5 144
t-116.5 54h-293l-116 -598q-10 -55 13 -77.5t89 -22.5h145q269 0 375 92q44 37 99.5 127.5t107.5 218.5h8l-157 -477h-1012l2 10q146 8 170 137l223 1158q12 65 -14.5 99t-100.5 38l2 10h971z" />
    <glyph glyph-name="edotaccent" unicode="&#x117;" horiz-adv-x="907" 
d="M578 1276q-51 0 -86 34t-35 85q0 49 35 81.5t86 32.5q50 0 84 -32.5t34 -81.5q0 -51 -34 -85t-84 -34zM823 375l11 -4q-54 -181 -162.5 -284t-263.5 -103q-160 0 -248 110.5t-88 288.5q0 101 23.5 200.5t68.5 186t105.5 153t139.5 104.5t166 38q110 0 177 -57t67 -158
q0 -77 -38 -144t-100 -114.5t-145.5 -84.5t-170 -58t-177.5 -31q13 -141 87.5 -230.5t205.5 -89.5q116 0 204 72.5t138 204.5zM510 1020q-127 -2 -226.5 -151t-99.5 -384v-32q138 14 249 60t180 126t69 180q0 95 -52.5 149t-119.5 52z" />
    <glyph glyph-name="Eogonek" unicode="&#x118;" horiz-adv-x="1247" 
d="M1247 1452l-41 -399h-8q-3 197 -72 278q-71 82 -229 82h-205q-64 0 -95.5 -20.5t-41.5 -73.5l-104 -541h309q67 0 120.5 48t75.5 126h9l-80 -413h-8q11 90 -25.5 144t-116.5 54h-293l-116 -598q-10 -55 13 -77.5t89 -22.5h145q269 0 375 92q44 37 99.5 127.5t107.5 218.5
h8l-157 -477q-123 -52 -179.5 -106.5t-56.5 -129.5q0 -55 31.5 -81.5t77.5 -26.5q87 0 129 68l8 -5q-24 -71 -78.5 -108t-124.5 -37q-72 0 -118 41t-46 117q0 168 316 268h-971l2 10q146 8 170 137l223 1158q12 65 -14.5 99t-100.5 38l2 10h971z" />
    <glyph glyph-name="eogonek" unicode="&#x119;" horiz-adv-x="907" 
d="M557 12q-160 -108 -160 -233q0 -63 33.5 -93t81.5 -30q90 0 133 70l8 -5q-24 -71 -78 -108t-124 -37q-77 0 -124.5 40.5t-47.5 117.5q0 149 192 254q-40 -4 -63 -4q-160 0 -248 110.5t-88 288.5q0 101 23.5 200.5t68.5 186t105.5 153t139.5 104.5t166 38q110 0 177 -57
t67 -158q0 -77 -38 -144t-100 -114.5t-145.5 -84.5t-170 -58t-177.5 -31q13 -141 87.5 -230.5t205.5 -89.5q116 0 204 72.5t138 204.5l11 -4q-39 -133 -109.5 -225.5t-167.5 -133.5zM510 1020q-127 -2 -226.5 -151t-99.5 -384v-32q138 14 249 60t180 126t69 180
q0 95 -52.5 149t-119.5 52z" />
    <glyph glyph-name="Ecaron" unicode="&#x11a;" horiz-adv-x="1247" 
d="M1217 1946l-375 -381h-17l-260 381l6 4l289 -201l352 201zM1247 1452l-41 -399h-8q-3 197 -72 278q-71 82 -229 82h-205q-64 0 -95.5 -20.5t-41.5 -73.5l-104 -541h309q67 0 120.5 48t75.5 126h9l-80 -413h-8q11 90 -25.5 144t-116.5 54h-293l-116 -598q-10 -55 13 -77.5
t89 -22.5h145q269 0 375 92q44 37 99.5 127.5t107.5 218.5h8l-157 -477h-1012l2 10q146 8 170 137l223 1158q12 65 -14.5 99t-100.5 38l2 10h971z" />
    <glyph glyph-name="ecaron" unicode="&#x11b;" horiz-adv-x="907" 
d="M907 1593l-368 -401h-17l-276 401l8 4l303 -227l344 227zM481 98q116 0 204 72.5t138 204.5l11 -4q-54 -181 -162.5 -284t-263.5 -103q-160 0 -248 110.5t-88 288.5q0 101 23.5 200.5t68.5 186t105.5 153t139.5 104.5t166 38q110 0 177 -57t67 -158q0 -77 -38 -144
t-100 -114.5t-145.5 -84.5t-170 -58t-177.5 -31q13 -141 87.5 -230.5t205.5 -89.5zM510 1020q-127 -2 -226.5 -151t-99.5 -384v-32q138 14 249 60t180 126t69 180q0 95 -52.5 149t-119.5 52z" />
    <glyph glyph-name="Gbreve" unicode="&#x11e;" horiz-adv-x="1486" 
d="M971 1567q-147 0 -219 99t-43 257l4 2q9 -107 82 -167t192 -60q120 0 213 61t131 166l4 -2q-31 -165 -122 -260.5t-242 -95.5zM1049 707l2 10h436v-10q-141 -11 -166 -138l-115 -585h-6q0 53 -20.5 78.5t-53.5 25.5q-24 0 -43 -8q-192 -94 -368 -94q-270 0 -430 152.5
t-160 441.5q0 260 117.5 464t320.5 315t455 111q238 0 399 -79l-37 -361h-4q-11 118 -36 185.5t-66 111.5q-47 49 -133 76t-197 27q-142 0 -264.5 -54.5t-212.5 -153.5t-141.5 -245.5t-51.5 -321.5q0 -269 152.5 -439.5t384.5 -170.5q50 0 106.5 13.5t83.5 24.5t84 36
l89 450q25 129 -125 138z" />
    <glyph glyph-name="gbreve" unicode="&#x11f;" horiz-adv-x="997" 
d="M578 1214q-125 0 -197 73t-72 194q0 22 13 98l4 2q5 -108 78 -171.5t200 -63.5q122 0 218.5 62.5t138.5 172.5l4 -2q-36 -169 -131.5 -267t-255.5 -98zM756 1014l284 41l-18 -105l-244 47q115 -82 115 -241q0 -173 -116.5 -284.5t-295.5 -111.5q-136 0 -225 64
q-61 -34 -89 -67t-28 -74q0 -54 48.5 -79t152.5 -30l203 -10q154 -8 228.5 -59.5t74.5 -159.5q0 -154 -153 -258.5t-380 -104.5q-166 0 -265 58.5t-99 162.5q0 85 52 149.5t155 115.5q-103 45 -103 141q0 129 183 229q-101 84 -101 234q0 170 117 281.5t295 111.5
q124 0 209 -51zM530 391q96 0 153.5 78.5t57.5 212.5q0 150 -71 251t-174 101q-94 0 -152.5 -79t-58.5 -212q0 -150 71 -251t174 -101zM530 27l-208 10q-78 3 -140 22q-101 -52 -151.5 -110t-50.5 -135q0 -97 90.5 -151t246.5 -54q192 0 305 70.5t113 191.5q0 79 -51 115
t-154 41z" />
    <glyph glyph-name="Gdotaccent" unicode="&#x120;" horiz-adv-x="1486" 
d="M983 1614q-51 0 -86 34t-35 85q0 49 35 81.5t86 32.5q48 0 83.5 -32.5t35.5 -81.5q0 -50 -35.5 -84.5t-83.5 -34.5zM1049 707l2 10h436v-10q-141 -11 -166 -138l-115 -585h-6q0 53 -20.5 78.5t-53.5 25.5q-24 0 -43 -8q-192 -94 -368 -94q-270 0 -430 152.5t-160 441.5
q0 260 117.5 464t320.5 315t455 111q238 0 399 -79l-37 -361h-4q-11 118 -36 185.5t-66 111.5q-47 49 -133 76t-197 27q-142 0 -264.5 -54.5t-212.5 -153.5t-141.5 -245.5t-51.5 -321.5q0 -269 152.5 -439.5t384.5 -170.5q50 0 106.5 13.5t83.5 24.5t84 36l89 450
q25 129 -125 138z" />
    <glyph glyph-name="gdotaccent" unicode="&#x121;" horiz-adv-x="997" 
d="M629 1276q-51 0 -86 34t-35 85q0 49 35 81.5t86 32.5q50 0 84.5 -32.5t34.5 -81.5q0 -51 -34.5 -85t-84.5 -34zM756 1014l284 41l-18 -105l-244 47q115 -82 115 -241q0 -173 -116.5 -284.5t-295.5 -111.5q-136 0 -225 64q-61 -34 -89 -67t-28 -74q0 -54 48.5 -79
t152.5 -30l203 -10q154 -8 228.5 -59.5t74.5 -159.5q0 -154 -153 -258.5t-380 -104.5q-166 0 -265 58.5t-99 162.5q0 85 52 149.5t155 115.5q-103 45 -103 141q0 129 183 229q-101 84 -101 234q0 170 117 281.5t295 111.5q124 0 209 -51zM530 391q96 0 153.5 78.5
t57.5 212.5q0 150 -71 251t-174 101q-94 0 -152.5 -79t-58.5 -212q0 -150 71 -251t174 -101zM530 27l-208 10q-78 3 -140 22q-101 -52 -151.5 -110t-50.5 -135q0 -97 90.5 -151t246.5 -54q192 0 305 70.5t113 191.5q0 79 -51 115t-154 41z" />
    <glyph glyph-name="uni0122" unicode="&#x122;" horiz-adv-x="1486" 
d="M1049 707l2 10h436v-10q-141 -11 -166 -138l-115 -585h-6q0 53 -20.5 78.5t-53.5 25.5q-24 0 -43 -8q-192 -94 -368 -94q-270 0 -430 152.5t-160 441.5q0 260 117.5 464t320.5 315t455 111q238 0 399 -79l-37 -361h-4q-11 118 -36 185.5t-66 111.5q-47 49 -133 76
t-197 27q-142 0 -264.5 -54.5t-212.5 -153.5t-141.5 -245.5t-51.5 -321.5q0 -269 152.5 -439.5t384.5 -170.5q50 0 106.5 13.5t83.5 24.5t84 36l89 450q25 129 -125 138zM532 -436l-4 24q119 21 119 88q0 22 -16.5 42t-33.5 43t-17 53q0 43 27 67.5t71 24.5q46 0 70 -29
t24 -78q0 -94 -68 -156.5t-172 -78.5z" />
    <glyph glyph-name="uni0123" unicode="&#x123;" horiz-adv-x="997" 
d="M586 1237q-42 0 -66 30.5t-24 78.5q0 88 67.5 152.5t175.5 86.5l4 -20q-122 -28 -122 -90q0 -22 17.5 -43.5t34.5 -46t17 -54.5q0 -45 -28 -69.5t-76 -24.5zM756 1014l284 41l-18 -105l-244 47q115 -82 115 -241q0 -173 -116.5 -284.5t-295.5 -111.5q-136 0 -225 64
q-61 -34 -89 -67t-28 -74q0 -54 48.5 -79t152.5 -30l203 -10q154 -8 228.5 -59.5t74.5 -159.5q0 -154 -153 -258.5t-380 -104.5q-166 0 -265 58.5t-99 162.5q0 85 52 149.5t155 115.5q-103 45 -103 141q0 129 183 229q-101 84 -101 234q0 170 117 281.5t295 111.5
q124 0 209 -51zM530 391q96 0 153.5 78.5t57.5 212.5q0 150 -71 251t-174 101q-94 0 -152.5 -79t-58.5 -212q0 -150 71 -251t174 -101zM530 27l-208 10q-78 3 -140 22q-101 -52 -151.5 -110t-50.5 -135q0 -97 90.5 -151t246.5 -54q192 0 305 70.5t113 191.5q0 79 -51 115
t-154 41z" />
    <glyph glyph-name="Hbar" unicode="&#x126;" horiz-adv-x="1542" 
d="M1630 1452l-2 -10q-150 -8 -172 -137l-35 -177h193l-4 -38h-195l-184 -943q-25 -129 119 -137l-2 -10h-455l2 10q80 6 121 40t53 97l115 594h-738l-114 -594q-25 -129 119 -137l-2 -10h-455l2 10q148 8 174 137l182 943h-194l4 38h196l35 177q11 63 -16 98t-103 39l2 10
h455l-2 -10q-79 -6 -119.5 -39.5t-54.5 -97.5l-35 -177h737l35 177q26 129 -118 137l2 10h454zM455 780h737l59 310h-737z" />
    <glyph glyph-name="hbar" unicode="&#x127;" horiz-adv-x="1130" 
d="M1112 354l12 -2q-15 -42 -27 -72t-34.5 -78t-46.5 -82t-54.5 -67.5t-68.5 -51t-80 -17.5q-75 0 -105 51.5t-14 138.5l103 580q20 112 -14.5 165.5t-94.5 53.5q-57 0 -113.5 -41t-106 -114.5t-88.5 -147.5t-79 -168l-90 -502h-152l211 1206h-194v39h203v4q14 76 -10.5 117
t-112.5 47v10q172 27 317 84h6l-47 -262h297v-39h-303l-113 -626q209 485 457 485q106 0 158 -73.5t24 -225.5l-100 -573q-21 -109 47 -109q36 0 73 31.5t65 80t46 87t29 71.5z" />
    <glyph glyph-name="Itilde" unicode="&#x128;" horiz-adv-x="636" 
d="M231 1632l-4 2q4 108 56 170t125 62q51 0 103.5 -23t102 -46t93.5 -23q52 0 95 29t62 85l4 -2q-4 -111 -54.5 -172t-125.5 -61q-61 0 -149.5 47t-145.5 47q-51 0 -96 -29.5t-66 -85.5zM446 0h-456l2 10q151 8 174 137l223 1158q26 129 -119 137l2 10h457l-2 -10
q-80 -6 -121 -40t-53 -97l-225 -1158q-12 -65 16 -99t105 -38z" />
    <glyph glyph-name="itilde" unicode="&#x129;" horiz-adv-x="608" 
d="M70 1276l-4 2q6 110 57 171.5t125 61.5q50 0 102.5 -23.5t102 -47t92.5 -23.5q54 0 96.5 29.5t60.5 85.5l5 -2q-3 -110 -54 -171t-125 -61q-41 0 -82 14.5t-69.5 32t-68 32t-77.5 14.5q-51 0 -95.5 -29.5t-65.5 -85.5zM285 -16q-74 0 -103.5 50.5t-15.5 139.5l121 678
q19 113 -58 113q-55 0 -107.5 -67t-88.5 -150l-10 2q126 315 305 315q73 0 103 -49.5t13 -141.5l-120 -677q-9 -57 2 -85t47 -28q44 0 90.5 51t74 106.5t48.5 112.5l10 -2q-120 -368 -311 -368z" />
    <glyph glyph-name="Imacron" unicode="&#x12a;" horiz-adv-x="636" 
d="M823 1733h-542l8 43h542zM446 0h-456l2 10q151 8 174 137l223 1158q26 129 -119 137l2 10h457l-2 -10q-80 -6 -121 -40t-53 -97l-225 -1158q-12 -65 16 -99t105 -38z" />
    <glyph glyph-name="imacron" unicode="&#x12b;" horiz-adv-x="608" 
d="M666 1352h-498l6 43h500zM285 -16q-74 0 -103.5 50.5t-15.5 139.5l121 678q19 113 -58 113q-55 0 -107.5 -67t-88.5 -150l-10 2q126 315 305 315q73 0 103 -49.5t13 -141.5l-120 -677q-9 -57 2 -85t47 -28q44 0 90.5 51t74 106.5t48.5 112.5l10 -2q-120 -368 -311 -368z
" />
    <glyph glyph-name="Iogonek" unicode="&#x12e;" horiz-adv-x="636" 
d="M270 1442l2 10h457l-2 -10q-80 -6 -121 -40t-53 -97l-225 -1158q-12 -65 16 -99t105 -38l-3 -10h-198q-150 -104 -150 -227q0 -63 32.5 -93t80.5 -30q90 0 133 69l8 -4q-24 -71 -78 -108t-124 -37q-77 0 -125 40.5t-48 117.5q0 79 61 150t171 122h-219l2 10
q151 8 174 137l223 1158q26 129 -119 137z" />
    <glyph glyph-name="iogonek" unicode="&#x12f;" horiz-adv-x="608" 
d="M397 1276q-51 0 -86 34t-35 85q0 49 35 81.5t86 32.5q48 0 83.5 -32.5t35.5 -81.5q0 -50 -35.5 -84.5t-83.5 -34.5zM307 -350q90 0 133 69l9 -4q-24 -71 -78.5 -108t-124.5 -37q-77 0 -124.5 40.5t-47.5 117.5q0 73 52 139.5t146 116.5q-67 4 -93.5 54t-12.5 136l121 678
q19 113 -58 113q-55 0 -107.5 -67t-88.5 -150l-10 2q126 315 305 315q73 0 103 -49.5t13 -141.5l-120 -677q-9 -57 2 -85t47 -28q44 0 90.5 51t74 106.5t48.5 112.5l10 -2q-108 -324 -268 -364q-133 -100 -133 -215q0 -63 32 -93t80 -30z" />
    <glyph glyph-name="Idotaccent" unicode="&#x130;" horiz-adv-x="636" 
d="M555 1614q-51 0 -85 34t-34 85q0 49 34 81.5t85 32.5q50 0 85.5 -32.5t35.5 -81.5q0 -50 -35.5 -84.5t-85.5 -34.5zM446 0h-456l2 10q151 8 174 137l223 1158q26 129 -119 137l2 10h457l-2 -10q-80 -6 -121 -40t-53 -97l-225 -1158q-12 -65 16 -99t105 -38z" />
    <glyph glyph-name="dotlessi" unicode="&#x131;" horiz-adv-x="608" 
d="M285 -16q-74 0 -103.5 50.5t-15.5 139.5l121 678q19 113 -58 113q-55 0 -107.5 -67t-88.5 -150l-10 2q126 315 305 315q73 0 103 -49.5t13 -141.5l-120 -677q-9 -57 2 -85t47 -28q44 0 90.5 51t74 106.5t48.5 112.5l10 -2q-120 -368 -311 -368z" />
    <glyph glyph-name="IJ" unicode="&#x132;" horiz-adv-x="1488" 
d="M446 0h-456l2 10q151 8 174 137l223 1158q26 129 -119 137l2 10h457l-2 -10q-80 -6 -121 -40t-53 -97l-225 -1158q-12 -65 16 -99t105 -38zM848 -14q-154 0 -230 61l44 334h2q6 -111 18 -170.5t35 -104.5q44 -86 143 -86q80 0 131.5 58t71.5 153l207 1074
q25 129 -119 137l2 10h457l-2 -10q-78 -6 -120 -39.5t-54 -97.5l-185 -940q-36 -191 -145 -285t-256 -94z" />
    <glyph glyph-name="ij" unicode="&#x133;" horiz-adv-x="1157" 
d="M397 1276q-51 0 -86 34t-35 85q0 49 35 81.5t86 32.5q48 0 83.5 -32.5t35.5 -81.5q0 -50 -35.5 -84.5t-83.5 -34.5zM1071 1276q-51 0 -86 34t-35 85q0 49 35 81.5t86 32.5q50 0 84.5 -32.5t34.5 -81.5q0 -51 -34.5 -85t-84.5 -34zM285 -16q-74 0 -103.5 50.5t-15.5 139.5
l121 678q19 113 -58 113q-55 0 -107.5 -67t-88.5 -150l-10 2q126 315 305 315q73 0 103 -49.5t13 -141.5l-120 -677q-9 -57 2 -85t47 -28q44 0 90.5 51t74 106.5t48.5 112.5l10 -2q-120 -368 -311 -368zM549 -434q-82 0 -130 49.5t-48 122.5q0 68 36 113t89 45
q28 0 43.5 -17.5t15.5 -42.5t-12 -40t-29 -22.5t-34.5 -15.5t-29.5 -25t-12 -44q0 -45 28 -70t79 -25q147 0 188 222l189 1036q20 113 -58 113q-29 0 -59 -21t-55.5 -56t-44.5 -69.5t-35 -70.5l-11 2q19 48 37.5 87t47.5 83.5t60 74.5t73 50t88 20q72 0 100.5 -48.5
t11.5 -142.5l-174 -956q-33 -177 -130.5 -264.5t-223.5 -87.5z" />
    <glyph glyph-name="uni0136" unicode="&#x136;" horiz-adv-x="1376" 
d="M1133 1442l2 10h395l-2 -10q-115 -21 -295 -162l-516 -408l401 -725q24 -43 44.5 -68t55 -43.5t82.5 -25.5l-2 -10h-450l2 10q98 14 98 70q0 27 -22 67l-344 621l-158 -123l-96 -498q-12 -65 15 -99t103 -38l-2 -10h-454l2 10q150 8 174 137l223 1158q14 65 -13.5 99
t-105.5 38l2 10h457l-2 -10q-79 -6 -120.5 -39t-53.5 -98l-119 -607l696 547q91 75 91 129q0 55 -88 68zM479 -436l-6 24q121 21 121 88q0 22 -17 42t-34 43t-17 53q0 43 26.5 67.5t70.5 24.5q46 0 71 -29t25 -78q0 -93 -68.5 -156t-171.5 -79z" />
    <glyph glyph-name="uni0137" unicode="&#x137;" horiz-adv-x="1081" 
d="M846 82q38 0 82 53.5t100 186.5l12 -5q-67 -183 -127 -258t-143 -75q-49 0 -87.5 28.5t-72.5 104.5l-157 344l-4 16q179 52 273.5 146t94.5 215q0 69 -34 102t-93 33q-47 0 -96 -32t-89 -79.5t-80.5 -114t-68 -123t-53.5 -118.5l-90 -506h-154l222 1249q12 81 -12 119.5
t-113 44.5l2 10q174 28 317 84h6l-166 -927q209 485 465 485q91 0 143 -48.5t52 -139.5q0 -129 -94 -219t-291 -152l149 -322q29 -60 51.5 -81t55.5 -21zM283 -436l-4 24q120 21 120 88q0 22 -17.5 42t-34.5 43t-17 53q0 43 27 67.5t71 24.5q46 0 71 -29t25 -78
q0 -93 -68.5 -156t-172.5 -79z" />
    <glyph glyph-name="kgreenlandic" unicode="&#x138;" horiz-adv-x="1159" 
d="M924 82q40 0 82.5 53t99.5 187l12 -5q-67 -183 -127 -258t-143 -75q-49 0 -87.5 28.5t-72.5 104.5l-158 344l-4 16q179 52 274 146t95 215q0 69 -34 102t-91 33q-48 0 -97 -32t-89.5 -79t-80.5 -113t-68 -122.5t-54 -118.5l-90 -508h-154l152 852q18 113 -58 113
q-94 0 -196 -217l-10 2q16 38 28 63.5t34 67t45 70t53 57t67 43t78 14.5q74 0 102.5 -50t13.5 -141l-51 -290q29 67 56.5 122t73.5 125.5t92.5 118.5t111 81.5t131.5 33.5q89 0 141 -48.5t52 -139.5q0 -129 -94 -219t-291 -152l149 -322q29 -60 51.5 -81t55.5 -21z" />
    <glyph glyph-name="Lacute" unicode="&#x139;" horiz-adv-x="1159" 
d="M797 1745l-492 -189l-4 5l369 340l133 -125zM1114 440h8l-149 -440h-983l2 10q79 6 120.5 39t53.5 98l223 1158q25 129 -119 137l2 10h463l-2 -10q-84 -4 -126.5 -38t-53.5 -99l-227 -1166q-10 -57 13 -78.5t93 -21.5h221q171 0 273 96q48 43 91 109t97 196z" />
    <glyph glyph-name="lacute" unicode="&#x13a;" horiz-adv-x="532" 
d="M719 1878l-492 -188l-4 4l369 340l133 -125zM211 -16q-75 0 -103.5 53t-13.5 137l189 1079q7 28 4 56t-13.5 49.5t-40 36.5t-75.5 18l2 10q172 27 317 84h6l-233 -1314q-18 -109 49 -109q31 0 62 22.5t53.5 53t44 71.5t33 69t20.5 54l10 -2q-17 -49 -32 -87.5t-45 -95
t-61 -93.5t-77 -64.5t-96 -27.5z" />
    <glyph glyph-name="uni013B" unicode="&#x13b;" horiz-adv-x="1159" 
d="M1114 440h8l-149 -440h-983l2 10q79 6 120.5 39t53.5 98l223 1158q25 129 -119 137l2 10h463l-2 -10q-84 -4 -126.5 -38t-53.5 -99l-227 -1166q-10 -57 13 -78.5t93 -21.5h221q171 0 273 96q48 43 91 109t97 196zM416 -436l-6 24q120 21 120 88q0 22 -16.5 42t-33.5 43
t-17 53q0 43 26 67.5t70 24.5q46 0 71 -29t25 -78q0 -93 -68 -156t-171 -79z" />
    <glyph glyph-name="uni013C" unicode="&#x13c;" horiz-adv-x="532" 
d="M211 -16q-75 0 -103.5 53t-13.5 137l189 1079q7 28 4 56t-13.5 49.5t-40 36.5t-75.5 18l2 10q172 27 317 84h6l-233 -1314q-18 -109 49 -109q31 0 62 22.5t53.5 53t44 71.5t33 69t20.5 54l10 -2q-17 -49 -32 -87.5t-45 -95t-61 -93.5t-77 -64.5t-96 -27.5zM27 -436l-4 24
q120 21 120 88q0 22 -17 42t-34.5 43t-17.5 53q0 43 27 67.5t71 24.5q46 0 71 -29t25 -78q0 -93 -68.5 -156t-172.5 -79z" />
    <glyph glyph-name="Lcaron" unicode="&#x13d;" horiz-adv-x="1163" 
d="M1032 1087l-6 -2l-119 402l174 35l4 -33zM1114 440h8l-149 -440h-983l2 10q79 6 120.5 39t53.5 98l223 1158q25 129 -119 137l2 10h463l-2 -10q-84 -4 -126.5 -38t-53.5 -99l-227 -1166q-10 -57 13 -78.5t93 -21.5h221q171 0 273 96q48 43 91 109t97 196z" />
    <glyph glyph-name="lcaron" unicode="&#x13e;" horiz-adv-x="532" 
d="M692 1128l-6 -2l-121 402l176 33l4 -33zM211 -16q-75 0 -103.5 53t-13.5 137l189 1079q7 28 4 56t-13.5 49.5t-40 36.5t-75.5 18l2 10q172 27 317 84h6l-233 -1314q-18 -109 49 -109q31 0 62 22.5t53.5 53t44 71.5t33 69t20.5 54l10 -2q-17 -49 -32 -87.5t-45 -95
t-61 -93.5t-77 -64.5t-96 -27.5z" />
    <glyph glyph-name="Ldot" unicode="&#x13f;" horiz-adv-x="1161" 
d="M1114 440h8l-149 -440h-983l2 10q79 6 120.5 39t53.5 98l223 1158q25 129 -119 137l2 10h463l-2 -10q-84 -4 -126.5 -38t-53.5 -99l-227 -1166q-10 -57 13 -78.5t93 -21.5h221q171 0 273 96q48 43 91 109t97 196zM922 733q-47 0 -78 29.5t-31 75.5q0 54 36.5 90.5
t92.5 36.5q49 0 80 -29t31 -74q0 -56 -36 -92.5t-95 -36.5z" />
    <glyph glyph-name="ldot" unicode="&#x140;" horiz-adv-x="626" 
d="M211 -16q-75 0 -103.5 53t-13.5 137l189 1079q7 28 4 56t-13.5 49.5t-40 36.5t-75.5 18l2 10q172 27 317 84h6l-233 -1314q-18 -109 49 -109q31 0 62 22.5t53.5 53t44 71.5t33 69t20.5 54l10 -2q-17 -49 -32 -87.5t-45 -95t-61 -93.5t-77 -64.5t-96 -27.5zM573 633
q-47 0 -77.5 29.5t-30.5 76.5q0 53 36.5 90t92.5 37q49 0 80 -29.5t31 -74.5q0 -55 -36.5 -92t-95.5 -37z" />
    <glyph glyph-name="Lslash" unicode="&#x141;" horiz-adv-x="1167" 
d="M1122 440h11l-152 -440h-981l2 10q79 6 119.5 39t52.5 98l102 523l-141 -68l-18 39l170 82l112 582q11 64 -16.5 98.5t-103.5 38.5l2 10h464l-2 -10q-84 -4 -127 -38t-55 -99l-96 -498l217 104l18 -39l-245 -118l-121 -615q-10 -57 13.5 -78.5t94.5 -21.5h220
q170 0 272 96q48 43 91 109t97 196z" />
    <glyph glyph-name="lslash" unicode="&#x142;" horiz-adv-x="636" 
d="M332 84q39 0 76 31t65.5 81t45 86.5t28.5 71.5l10 -2q-127 -368 -311 -368q-77 0 -105.5 53t-13.5 137l94 543l-135 -64l-18 39l163 76l84 485q7 28 5 56t-12 49.5t-39.5 36.5t-75.5 18l2 10q172 27 317 84h6l-117 -659l179 84l16 -39l-205 -96l-106 -604q-9 -57 1.5 -83
t45.5 -26z" />
    <glyph glyph-name="Nacute" unicode="&#x143;" horiz-adv-x="1476" 
d="M1235 1745l-492 -189l-6 5l369 340l135 -125zM1231 1442l2 10h360l-2 -10q-165 -13 -188 -150l-252 -1292h-59l-660 1307l-221 -1147q-28 -139 131 -150l-2 -10h-360l2 10q161 13 188 150l225 1151q8 50 -22.5 84t-104.5 47l2 10h269l614 -1229l209 1069q24 140 -131 150
z" />
    <glyph glyph-name="nacute" unicode="&#x144;" horiz-adv-x="1212" 
d="M979 1536l-422 -342l-4 4l278 412l148 -43v-31zM1192 354l10 -2q-17 -49 -32 -87.5t-45 -95t-61 -93.5t-77 -64.5t-96 -27.5q-75 0 -104 51.5t-15 138.5l102 580q20 113 -14 166t-100 53q-174 0 -379 -467l-90 -506h-154l152 852q18 113 -58 113q-94 0 -196 -217l-10 2
q16 38 28 63.5t34 67t45 70t53 57t67 43t78 14.5q74 0 102.5 -50t13.5 -141l-51 -290q212 481 453 481q107 0 158.5 -73.5t25.5 -225.5l-102 -573q-9 -56 1.5 -82.5t47.5 -26.5q36 0 73 31.5t65 80t46 87t29 71.5z" />
    <glyph glyph-name="uni0145" unicode="&#x145;" horiz-adv-x="1476" 
d="M1231 1442l2 10h360l-2 -10q-165 -13 -188 -150l-252 -1292h-59l-660 1307l-221 -1147q-28 -139 131 -150l-2 -10h-360l2 10q161 13 188 150l225 1151q8 50 -22.5 84t-104.5 47l2 10h269l614 -1229l209 1069q24 140 -131 150zM475 -436l-4 24q119 21 119 88q0 22 -17 42
t-34 43t-17 53q0 43 27.5 67.5t71.5 24.5q46 0 71 -29t25 -78q0 -93 -69 -156t-173 -79z" />
    <glyph glyph-name="uni0146" unicode="&#x146;" horiz-adv-x="1212" 
d="M1192 354l10 -2q-17 -49 -32 -87.5t-45 -95t-61 -93.5t-77 -64.5t-96 -27.5q-75 0 -104 51.5t-15 138.5l102 580q20 113 -14 166t-100 53q-174 0 -379 -467l-90 -506h-154l152 852q18 113 -58 113q-94 0 -196 -217l-10 2q16 38 28 63.5t34 67t45 70t53 57t67 43t78 14.5
q74 0 102.5 -50t13.5 -141l-51 -290q212 481 453 481q107 0 158.5 -73.5t25.5 -225.5l-102 -573q-9 -56 1.5 -82.5t47.5 -26.5q36 0 73 31.5t65 80t46 87t29 71.5zM401 -436l-4 24q119 21 119 88q0 22 -17 42t-33.5 43t-16.5 53q0 43 27 67.5t71 24.5q46 0 71 -29t25 -78
q0 -93 -69 -156t-173 -79z" />
    <glyph glyph-name="Ncaron" unicode="&#x147;" horiz-adv-x="1476" 
d="M1325 1946l-375 -381h-16l-260 381l6 4l287 -201l354 201zM1231 1442l2 10h360l-2 -10q-165 -13 -188 -150l-252 -1292h-59l-660 1307l-221 -1147q-28 -139 131 -150l-2 -10h-360l2 10q161 13 188 150l225 1151q8 50 -22.5 84t-104.5 47l2 10h269l614 -1229l209 1069
q24 140 -131 150z" />
    <glyph glyph-name="ncaron" unicode="&#x148;" horiz-adv-x="1212" 
d="M1092 1593l-369 -401h-16l-277 401l8 4l303 -227l344 227zM1192 354l10 -2q-17 -49 -32 -87.5t-45 -95t-61 -93.5t-77 -64.5t-96 -27.5q-75 0 -104 51.5t-15 138.5l102 580q20 113 -14 166t-100 53q-174 0 -379 -467l-90 -506h-154l152 852q18 113 -58 113
q-94 0 -196 -217l-10 2q16 38 28 63.5t34 67t45 70t53 57t67 43t78 14.5q74 0 102.5 -50t13.5 -141l-51 -290q212 481 453 481q107 0 158.5 -73.5t25.5 -225.5l-102 -573q-9 -56 1.5 -82.5t47.5 -26.5q36 0 73 31.5t65 80t46 87t29 71.5z" />
    <glyph glyph-name="Eng" unicode="&#x14a;" horiz-adv-x="1476" 
d="M1231 1442l2 10h360l-2 -10q-165 -14 -188 -150l-279 -1435q-29 -147 -89 -217t-177 -70q-73 0 -118.5 40t-45.5 101q0 59 23 100.5t53 41.5q10 0 17.5 -7.5t7.5 -17.5q0 -15 -10 -25.5t-22 -16.5t-22 -26t-10 -53q0 -47 35 -76.5t94 -29.5q89 0 142 58t81 200l27 141
l-678 1307l-221 -1147q-28 -139 131 -150l-2 -10h-360l2 10q88 7 131.5 45.5t56.5 104.5l225 1155q8 46 -23.5 80t-103.5 47l2 10h285l608 -1182l199 1022q24 140 -131 150z" />
    <glyph glyph-name="eng" unicode="&#x14b;" horiz-adv-x="1128" 
d="M711 -174l163 928q22 113 -13 166t-101 53q-174 0 -379 -467l-90 -506h-154l152 852q18 113 -58 113q-94 0 -196 -217l-10 2q16 38 28 63.5t34 67t45 70t53 57t67 43t78 14.5q74 0 102.5 -50t13.5 -141l-51 -290q212 481 453 481q107 0 158.5 -73.5t25.5 -225.5
l-158 -885q-29 -163 -122.5 -239t-216.5 -76q-88 0 -136.5 45t-48.5 117q0 69 38 117.5t89 48.5q26 0 39.5 -16.5t13.5 -37.5q0 -30 -18 -50t-40 -29.5t-40 -30.5t-18 -52q0 -40 28 -62t80 -22q148 0 189 232z" />
    <glyph glyph-name="Omacron" unicode="&#x14c;" horiz-adv-x="1611" 
d="M1313 1733h-543l6 43h543zM737 -16q-131 0 -244.5 46t-193.5 126.5t-126 193.5t-46 242q0 175 63.5 336.5t173 282t265 192.5t329.5 72t313.5 -79t218.5 -218t79 -312q0 -175 -63 -336.5t-172 -281.5t-265 -192t-332 -72zM743 20q184 0 335 121t234 319.5t83 428.5
q0 244 -119 396.5t-326 152.5q-181 0 -331 -121t-234 -320t-84 -428q0 -245 118 -397t324 -152z" />
    <glyph glyph-name="omacron" unicode="&#x14d;" horiz-adv-x="1058" 
d="M950 1352h-542l8 43h542zM446 -16q-166 0 -269 114.5t-103 300.5q0 181 73 335t196.5 242.5t266.5 88.5q170 0 274.5 -116t104.5 -302q0 -137 -43.5 -260.5t-116.5 -211.5t-173 -139.5t-210 -51.5zM465 18q103 0 190 101t134 250t47 301q0 161 -60.5 259.5t-167.5 98.5
q-80 0 -152.5 -58t-121.5 -150.5t-78 -208.5t-29 -232q0 -161 63 -261t175 -100z" />
    <glyph glyph-name="Ohungarumlaut" unicode="&#x150;" horiz-adv-x="1611" 
d="M1024 1827l-303 -287l-6 4l157 391l148 -80zM1376 1827l-303 -287l-6 4l158 391l147 -80zM737 -16q-131 0 -244.5 46t-193.5 126.5t-126 193.5t-46 242q0 175 63.5 336.5t173 282t265 192.5t329.5 72t313.5 -79t218.5 -218t79 -312q0 -175 -63 -336.5t-172 -281.5
t-265 -192t-332 -72zM743 20q184 0 335 121t234 319.5t83 428.5q0 244 -119 396.5t-326 152.5q-181 0 -331 -121t-234 -320t-84 -428q0 -245 118 -397t324 -152z" />
    <glyph glyph-name="ohungarumlaut" unicode="&#x151;" horiz-adv-x="1058" 
d="M621 1536l-287 -346l-6 2l112 428l181 -53v-31zM1006 1536l-289 -346l-4 2l112 428l181 -53v-31zM446 -16q-166 0 -269 114.5t-103 300.5q0 181 73 335t196.5 242.5t266.5 88.5q170 0 274.5 -116t104.5 -302q0 -137 -43.5 -260.5t-116.5 -211.5t-173 -139.5t-210 -51.5z
M465 18q103 0 190 101t134 250t47 301q0 161 -60.5 259.5t-167.5 98.5q-80 0 -152.5 -58t-121.5 -150.5t-78 -208.5t-29 -232q0 -161 63 -261t175 -100z" />
    <glyph glyph-name="OE" unicode="&#x152;" horiz-adv-x="2355" 
d="M2355 1452l-41 -399h-8q-6 200 -72 278q-71 82 -229 82h-207q-67 0 -97 -20t-40 -74l-105 -541h310q69 0 123.5 51t76.5 136h9l-80 -414h-10q12 84 -22 135t-103 51h-312l-116 -598q-9 -55 14.5 -77.5t89.5 -22.5h143q272 0 375 92q45 37 102 129t107 217h8l-160 -477
h-868l43 221q-106 -112 -246 -174.5t-303 -62.5q-136 0 -250.5 46t-193 126t-122.5 190.5t-44 237.5q0 175 62 337.5t169.5 285t264 195.5t335.5 73q176 0 309.5 -84t202.5 -228l56 289h829zM743 20q144 0 268 72.5t207 193.5t130 279.5t47 331.5q0 158 -48.5 278.5
t-150.5 191.5t-246 71q-141 0 -263.5 -72.5t-206 -193t-131.5 -280t-48 -331.5q0 -158 48 -278.5t149 -191.5t245 -71z" />
    <glyph glyph-name="oe" unicode="&#x153;" horiz-adv-x="1703" 
d="M1620 375l10 -4q-54 -181 -163 -284t-263 -103q-127 0 -209.5 72t-111.5 196q-74 -125 -189.5 -196.5t-247.5 -71.5q-166 0 -269 114.5t-103 300.5q0 181 73 335t196.5 242.5t266.5 88.5q134 0 229.5 -74.5t131.5 -202.5q69 127 172.5 202t226.5 75q111 0 177.5 -57
t66.5 -158q0 -64 -26 -121.5t-72.5 -102t-106.5 -80.5t-131.5 -61.5t-144.5 -42t-148 -24.5q13 -142 87 -231t206 -89q116 0 204 72.5t138 204.5zM465 18q103 0 190 101t134 250t47 301q0 161 -60.5 259.5t-167.5 98.5q-80 0 -152.5 -58t-121.5 -150.5t-78 -208.5t-29 -232
q0 -161 63 -261t175 -100zM987 598q0 -21 -4 -53q-2 -20 -2 -60v-32q138 14 248.5 60t179 126t68.5 180q0 95 -52 149t-120 52q-110 -2 -202 -117.5t-116 -304.5z" />
    <glyph glyph-name="Racute" unicode="&#x154;" horiz-adv-x="1294" 
d="M1112 1776l-6 -31l-492 -189l-4 5l369 340zM930 532l139 -376q25 -67 57 -101.5t97 -44.5l-2 -10h-279q-32 59 -57 147l-125 359q-30 94 -75 133t-146 39h-109l-98 -504q-17 -88 7.5 -122.5t111.5 -41.5l-2 -10h-459l2 10q78 6 120 39t54 98l223 1158q14 65 -14.5 99
t-104.5 38l2 10h543q222 0 335.5 -83t113.5 -247q0 -175 -129 -288t-355 -144q51 -11 87 -48t63 -110zM553 1311l-115 -594h183q225 0 349 106.5t124 298.5q0 146 -78.5 219.5t-229.5 73.5h-104q-56 0 -87.5 -24t-41.5 -80z" />
    <glyph glyph-name="racute" unicode="&#x155;" horiz-adv-x="860" 
d="M852 1536l-422 -342l-6 4l278 412l150 -43v-31zM743 1065q73 0 114.5 -43.5t41.5 -120.5q0 -63 -33 -106t-86 -43q-55 0 -75 30q53 40 53 105q0 46 -24 70t-62 24q-74 0 -136.5 -103t-154.5 -370l-90 -508h-154l152 852q18 113 -58 113q-94 0 -196 -217l-10 2
q16 38 28 63.5t34 67t45 70t53 57t67 43t78 14.5q74 0 102.5 -50t13.5 -141l-45 -249q77 247 155 343.5t187 96.5z" />
    <glyph glyph-name="uni0156" unicode="&#x156;" horiz-adv-x="1294" 
d="M930 532l139 -376q25 -67 57 -101.5t97 -44.5l-2 -10h-279q-32 59 -57 147l-125 359q-30 94 -75 133t-146 39h-109l-98 -504q-17 -88 7.5 -122.5t111.5 -41.5l-2 -10h-459l2 10q78 6 120 39t54 98l223 1158q14 65 -14.5 99t-104.5 38l2 10h543q222 0 335.5 -83
t113.5 -247q0 -175 -129 -288t-355 -144q51 -11 87 -48t63 -110zM553 1311l-115 -594h183q225 0 349 106.5t124 298.5q0 146 -78.5 219.5t-229.5 73.5h-104q-56 0 -87.5 -24t-41.5 -80zM608 -94q48 0 72.5 -29t24.5 -78q0 -93 -68.5 -156t-171.5 -79l-4 24q119 22 119 88
q0 22 -17 42t-34 43t-17 53q0 43 26 67.5t70 24.5z" />
    <glyph glyph-name="uni0157" unicode="&#x157;" horiz-adv-x="860" 
d="M743 1065q73 0 114.5 -43.5t41.5 -120.5q0 -63 -33 -106t-86 -43q-55 0 -75 30q53 40 53 105q0 46 -24 70t-62 24q-74 0 -136.5 -103t-154.5 -370l-90 -508h-154l152 852q18 113 -58 113q-94 0 -196 -217l-10 2q16 38 28 63.5t34 67t45 70t53 57t67 43t78 14.5
q74 0 102.5 -50t13.5 -141l-45 -249q77 247 155 343.5t187 96.5zM49 -436l-4 24q119 21 119 88q0 22 -17 42t-34 43t-17 53q0 43 27.5 67.5t71.5 24.5q46 0 70 -29t24 -78q0 -94 -68 -156.5t-172 -78.5z" />
    <glyph glyph-name="Rcaron" unicode="&#x158;" horiz-adv-x="1294" 
d="M1214 1946l-374 -381h-19l-258 381l6 4l287 -201l352 201zM930 532l139 -376q25 -67 57 -101.5t97 -44.5l-2 -10h-279q-32 59 -57 147l-125 359q-30 94 -75 133t-146 39h-109l-98 -504q-17 -88 7.5 -122.5t111.5 -41.5l-2 -10h-459l2 10q78 6 120 39t54 98l223 1158
q14 65 -14.5 99t-104.5 38l2 10h543q222 0 335.5 -83t113.5 -247q0 -175 -129 -288t-355 -144q51 -11 87 -48t63 -110zM553 1311l-115 -594h183q225 0 349 106.5t124 298.5q0 146 -78.5 219.5t-229.5 73.5h-104q-56 0 -87.5 -24t-41.5 -80z" />
    <glyph glyph-name="rcaron" unicode="&#x159;" horiz-adv-x="860" 
d="M954 1593l-366 -401h-19l-274 401l6 4l305 -225l344 225zM743 1065q73 0 114.5 -43.5t41.5 -120.5q0 -63 -33 -106t-86 -43q-55 0 -75 30q53 40 53 105q0 46 -24 70t-62 24q-74 0 -136.5 -103t-154.5 -370l-90 -508h-154l152 852q18 113 -58 113q-94 0 -196 -217l-10 2
q16 38 28 63.5t34 67t45 70t53 57t67 43t78 14.5q74 0 102.5 -50t13.5 -141l-45 -249q77 247 155 343.5t187 96.5z" />
    <glyph glyph-name="Sacute" unicode="&#x15a;" horiz-adv-x="1165" 
d="M1034 1745l-491 -189l-4 5l368 340l133 -125zM471 -14q-263 0 -416 84l37 389h4q35 -237 99 -318q44 -55 127 -85.5t186 -30.5q198 0 311 92.5t113 249.5q0 114 -78 187t-266 136q-189 66 -270.5 151t-81.5 206q0 130 71 227.5t192 148t273 50.5q221 0 369 -74l-31 -348
h-4q-15 117 -36 182.5t-56 101.5q-91 101 -289 101q-157 0 -262 -83t-105 -212q0 -104 76 -171t264 -134q188 -66 272.5 -154t84.5 -215q0 -217 -160 -349t-424 -132z" />
    <glyph glyph-name="sacute" unicode="&#x15b;" horiz-adv-x="860" 
d="M795 1536l-422 -342l-4 4l278 412l148 -43v-31zM367 -16q-86 0 -168.5 20t-137.5 55l27 322h4q9 -104 22.5 -155.5t39.5 -90.5q78 -117 245 -117q107 0 173.5 56t66.5 145q0 82 -55.5 142.5t-177.5 115.5q-130 58 -191 125t-61 156q0 137 97 222t257 85q136 0 274 -55
l-20 -279h-4q-14 135 -64 207q-29 44 -86 68t-127 24q-104 0 -165.5 -48t-61.5 -126q0 -64 50.5 -111.5t178.5 -109.5q139 -70 197.5 -139.5t58.5 -169.5q0 -154 -102 -248t-270 -94z" />
    <glyph glyph-name="Scedilla" unicode="&#x15e;" horiz-adv-x="1165" 
d="M772 1473q221 0 369 -74l-31 -348h-4q-15 117 -36 182.5t-56 101.5q-91 101 -289 101q-157 0 -262 -83t-105 -212q0 -104 76 -171t264 -134q188 -66 272.5 -154t84.5 -215q0 -209 -149 -339.5t-398 -141.5l-47 -92q50 16 86 16q62 0 98.5 -33.5t36.5 -91.5
q0 -95 -62.5 -146t-158.5 -51q-78 0 -130 37t-67 101l8 4q38 -78 144 -78q63 0 101 32t38 89q0 36 -25 60t-67 24q-21 0 -64 -11l74 140h-2q-263 0 -416 84l37 389h4q35 -237 99 -318q44 -55 127 -85.5t186 -30.5q198 0 311 92.5t113 249.5q0 114 -78 187t-266 136
q-189 66 -270.5 151t-81.5 206q0 130 71 227.5t192 148t273 50.5z" />
    <glyph glyph-name="scedilla" unicode="&#x15f;" horiz-adv-x="860" 
d="M508 1065q136 0 274 -55l-20 -279h-4q-14 135 -64 207q-29 44 -86 68t-127 24q-104 0 -165.5 -48t-61.5 -126q0 -64 50.5 -111.5t178.5 -109.5q139 -70 197.5 -139.5t58.5 -169.5q0 -148 -95 -241.5t-253 -100.5l-47 -90q44 14 84 14q63 0 99 -33.5t36 -91.5
q0 -96 -62 -146.5t-159 -50.5q-77 0 -129 38t-66 100l7 4q38 -78 145 -78q63 0 101 32t38 89q0 36 -25.5 60t-68.5 24q-20 0 -63 -11l73 140q-82 2 -160.5 21.5t-132.5 53.5l27 322h4q9 -104 22.5 -155.5t39.5 -90.5q78 -117 245 -117q107 0 173.5 56t66.5 145
q0 82 -55.5 142.5t-177.5 115.5q-130 58 -191 125t-61 156q0 137 97 222t257 85z" />
    <glyph glyph-name="Scaron" unicode="&#x160;" horiz-adv-x="1165" 
d="M1143 1946l-375 -381h-16l-260 381l6 4l286 -201l355 201zM236 1047q0 130 71 227.5t192 148t273 50.5q221 0 369 -74l-31 -348h-4q-15 117 -36 182.5t-56 101.5q-91 101 -289 101q-157 0 -262 -83t-105 -212q0 -104 76 -171t264 -134q188 -66 272.5 -154t84.5 -215
q0 -217 -160 -349t-424 -132q-263 0 -416 84l37 389h4q35 -237 99 -318q44 -55 127 -85.5t186 -30.5q198 0 311 92.5t113 249.5q0 114 -78 187t-266 136q-189 66 -270.5 151t-81.5 206z" />
    <glyph glyph-name="scaron" unicode="&#x161;" horiz-adv-x="860" 
d="M907 1593l-368 -401h-17l-276 401l8 4l303 -227l344 227zM154 758q0 137 97 222t257 85q136 0 274 -55l-20 -279h-4q-14 135 -64 207q-29 44 -86 68t-127 24q-104 0 -165.5 -48t-61.5 -126q0 -64 50.5 -111.5t178.5 -109.5q139 -70 197.5 -139.5t58.5 -169.5
q0 -154 -102 -248t-270 -94q-86 0 -168.5 20t-137.5 55l27 322h4q9 -104 22.5 -155.5t39.5 -90.5q78 -117 245 -117q107 0 173.5 56t66.5 145q0 82 -55.5 142.5t-177.5 115.5q-130 58 -191 125t-61 156z" />
    <glyph glyph-name="uni0162" unicode="&#x162;" horiz-adv-x="1253" 
d="M1364 1452l-41 -414h-8q3 215 -70 305q-55 70 -170 70h-110q-80 0 -97 -88l-227 -1178q-14 -67 12 -100t107 -37l-2 -10h-209l-55 -106q44 14 86 14q62 0 98.5 -33.5t36.5 -91.5q0 -95 -62.5 -146t-158.5 -51q-78 0 -130.5 37.5t-66.5 100.5l8 4q38 -78 144 -78
q63 0 101 32t38 89q0 36 -25 60t-67 24q-24 0 -64 -11l82 156h-211l2 10q82 4 121.5 38.5t52.5 98.5l228 1178q9 46 -7 67t-59 21h-111q-128 0 -211 -76q-98 -84 -180 -299h-8l121 414h1112z" />
    <glyph glyph-name="uni0163" unicode="&#x163;" horiz-adv-x="765" 
d="M840 1006h-371l-137 -742q-34 -182 84 -182q76 0 152 81.5t141 217.5l10 -2q-69 -171 -167 -281.5t-212 -113.5l-47 -93q53 17 86 17q62 0 97.5 -33.5t35.5 -91.5q0 -97 -61.5 -147t-159.5 -50q-77 0 -129 36.5t-66 98.5l8 5q33 -78 144 -78q63 0 101 32t38 91
q0 36 -25 60t-67 24q-24 0 -64 -11l72 142q-81 11 -113.5 77.5t-9.5 180.5l144 762h-246l2 8l244 94l202 235h6l-57 -299h373z" />
    <glyph glyph-name="Tcaron" unicode="&#x164;" horiz-adv-x="1253" 
d="M1208 1946l-374 -381h-17l-260 381l6 4l289 -201l352 201zM1364 1452l-41 -414h-8q3 215 -70 305q-55 70 -170 70h-110q-80 0 -97 -88l-227 -1178q-14 -67 12 -100t107 -37l-2 -10h-455l2 10q82 4 121.5 38.5t52.5 98.5l228 1178q9 46 -7 67t-59 21h-111q-128 0 -211 -76
q-98 -84 -180 -299h-8l121 414h1112z" />
    <glyph glyph-name="tcaron" unicode="&#x165;" horiz-adv-x="765" 
d="M756 1153l-6 -2l-121 401l176 33l4 -33zM334 -16q-97 0 -138 67.5t-16 192.5l144 762h-246l2 8l244 94l202 235h6l-57 -299h373l-8 -38h-371l-137 -742q-34 -182 84 -182q76 0 152 81.5t141 217.5l10 -2q-69 -172 -169.5 -283.5t-215.5 -111.5z" />
    <glyph glyph-name="Tbar" unicode="&#x166;" horiz-adv-x="1257" 
d="M1364 1452l-39 -414h-10q5 214 -68 305q-55 70 -170 70h-110q-83 0 -97 -88l-112 -577h235v-39h-243l-109 -562q-12 -67 14 -100t105 -37v-10h-455v10q84 4 123.5 38.5t50.5 98.5l109 562h-248v39h256l111 577q9 46 -6 67t-58 21h-111q-130 0 -213 -76q-93 -83 -180 -299
h-8l123 414h1110z" />
    <glyph glyph-name="tbar" unicode="&#x167;" horiz-adv-x="776" 
d="M856 1044l-8 -38h-371l-67 -363h325v-39h-332l-63 -340q-34 -182 84 -182q76 0 152 81.5t141 217.5l10 -2q-69 -172 -168.5 -283.5t-214.5 -111.5q-99 0 -140 67.5t-16 192.5l68 360h-174v39h182l68 363h-246l2 8l244 94l203 235h8l-58 -299h371z" />
    <glyph glyph-name="Utilde" unicode="&#x168;" horiz-adv-x="1445" 
d="M684 1632l-4 2q4 108 56 170t124 62q51 0 103.5 -23t101.5 -46t92 -23q54 0 97.5 29t62.5 85l4 -2q-4 -111 -54.5 -172t-125.5 -61q-52 0 -102 23.5t-98 47t-95 23.5q-52 0 -96.5 -29.5t-65.5 -85.5zM672 -16q-266 0 -390 138t-73 408l151 775q25 129 -120 137l2 10h456
l-2 -10q-78 -4 -120 -38t-54 -99l-157 -809q-42 -228 52 -347.5t296 -119.5q185 0 312.5 122.5t172.5 354.5l150 774q13 66 -14.5 109.5t-100.5 52.5l2 10h334l-2 -10q-148 -20 -178 -162l-150 -774q-49 -253 -189.5 -387.5t-377.5 -134.5z" />
    <glyph glyph-name="utilde" unicode="&#x169;" horiz-adv-x="1212" 
d="M393 1276l-4 2q6 110 57 171.5t125 61.5q50 0 102.5 -23.5t102 -47t92.5 -23.5q54 0 97 29.5t61 85.5l4 -2q-3 -110 -53.5 -171t-124.5 -61q-41 0 -82 14.5t-69.5 32t-68 32t-77.5 14.5q-51 0 -96 -29.5t-66 -85.5zM1184 354l12 -2q-19 -53 -35 -92t-46 -95.5t-60.5 -92
t-75.5 -62t-94 -26.5q-75 0 -104 51.5t-15 138.5l51 291q-212 -481 -452 -481q-107 0 -159 74.5t-24 226.5l99 561q19 119 -56 119q-91 0 -192 -208q-3 -6 -4 -9l-11 2q18 44 34 78t45.5 81.5t60 78.5t74.5 54t92 23q74 0 102.5 -50t13.5 -141l-102 -577q-20 -114 15 -167.5
t100 -53.5q43 0 87.5 28t82.5 71.5t77 108t69 124.5t62 133l89 503h153l-149 -849q-10 -59 1.5 -85t45.5 -26q36 0 72.5 30.5t64.5 78t46 87t30 74.5z" />
    <glyph glyph-name="Umacron" unicode="&#x16a;" horiz-adv-x="1445" 
d="M1288 1733h-543l7 43h542zM672 -16q-266 0 -390 138t-73 408l151 775q25 129 -120 137l2 10h456l-2 -10q-78 -4 -120 -38t-54 -99l-157 -809q-42 -228 52 -347.5t296 -119.5q185 0 312.5 122.5t172.5 354.5l150 774q13 66 -14.5 109.5t-100.5 52.5l2 10h334l-2 -10
q-148 -20 -178 -162l-150 -774q-49 -253 -189.5 -387.5t-377.5 -134.5z" />
    <glyph glyph-name="umacron" unicode="&#x16b;" horiz-adv-x="1212" 
d="M999 1352h-542l6 43h543zM1184 354l12 -2q-19 -53 -35 -92t-46 -95.5t-60.5 -92t-75.5 -62t-94 -26.5q-75 0 -104 51.5t-15 138.5l51 291q-212 -481 -452 -481q-107 0 -159 74.5t-24 226.5l99 561q19 119 -56 119q-91 0 -192 -208q-3 -6 -4 -9l-11 2q18 44 34 78
t45.5 81.5t60 78.5t74.5 54t92 23q74 0 102.5 -50t13.5 -141l-102 -577q-20 -114 15 -167.5t100 -53.5q43 0 87.5 28t82.5 71.5t77 108t69 124.5t62 133l89 503h153l-149 -849q-10 -59 1.5 -85t45.5 -26q36 0 72.5 30.5t64.5 78t46 87t30 74.5z" />
    <glyph glyph-name="Uring" unicode="&#x16e;" horiz-adv-x="1445" 
d="M1016 1575q-84 0 -142.5 58.5t-58.5 142.5q0 82 58.5 140t142.5 58q82 0 139 -58t57 -140q0 -83 -57 -142t-139 -59zM1016 1628q60 0 102.5 43t42.5 103q0 61 -42.5 104t-102.5 43q-63 0 -106.5 -42.5t-43.5 -104.5q0 -60 43.5 -103t106.5 -43zM672 -16q-266 0 -390 138
t-73 408l151 775q25 129 -120 137l2 10h456l-2 -10q-78 -4 -120 -38t-54 -99l-157 -809q-42 -228 52 -347.5t296 -119.5q185 0 312.5 122.5t172.5 354.5l150 774q13 66 -14.5 109.5t-100.5 52.5l2 10h334l-2 -10q-148 -20 -178 -162l-150 -774q-49 -253 -189.5 -387.5
t-377.5 -134.5z" />
    <glyph glyph-name="uring" unicode="&#x16f;" horiz-adv-x="1212" 
d="M727 1188q-83 0 -141 59t-58 142q0 82 58 140t141 58t141 -58t58 -140q0 -83 -58 -142t-141 -59zM727 1241q61 0 104 42.5t43 102.5q0 62 -43 105t-104 43t-104 -43t-43 -105q0 -60 43 -102.5t104 -42.5zM1184 354l12 -2q-19 -53 -35 -92t-46 -95.5t-60.5 -92t-75.5 -62
t-94 -26.5q-75 0 -104 51.5t-15 138.5l51 291q-212 -481 -452 -481q-107 0 -159 74.5t-24 226.5l99 561q19 119 -56 119q-91 0 -192 -208q-3 -6 -4 -9l-11 2q18 44 34 78t45.5 81.5t60 78.5t74.5 54t92 23q74 0 102.5 -50t13.5 -141l-102 -577q-20 -114 15 -167.5t100 -53.5
q43 0 87.5 28t82.5 71.5t77 108t69 124.5t62 133l89 503h153l-149 -849q-10 -59 1.5 -85t45.5 -26q36 0 72.5 30.5t64.5 78t46 87t30 74.5z" />
    <glyph glyph-name="Uhungarumlaut" unicode="&#x170;" horiz-adv-x="1445" 
d="M1022 1827l-301 -287l-8 4l159 391l148 -80zM1374 1827l-301 -287l-8 4l160 391l147 -80zM672 -16q-266 0 -390 138t-73 408l151 775q25 129 -120 137l2 10h456l-2 -10q-78 -4 -120 -38t-54 -99l-157 -809q-42 -228 52 -347.5t296 -119.5q185 0 312.5 122.5t172.5 354.5
l150 774q13 66 -14.5 109.5t-100.5 52.5l2 10h334l-2 -10q-148 -20 -178 -162l-150 -774q-49 -253 -189.5 -387.5t-377.5 -134.5z" />
    <glyph glyph-name="uhungarumlaut" unicode="&#x171;" horiz-adv-x="1212" 
d="M709 1536l-287 -346l-6 2l112 428l181 -53v-31zM1094 1536l-289 -346l-4 2l112 428l181 -53v-31zM1184 354l12 -2q-19 -53 -35 -92t-46 -95.5t-60.5 -92t-75.5 -62t-94 -26.5q-75 0 -104 51.5t-15 138.5l51 291q-212 -481 -452 -481q-107 0 -159 74.5t-24 226.5l99 561
q19 119 -56 119q-91 0 -192 -208q-3 -6 -4 -9l-11 2q18 44 34 78t45.5 81.5t60 78.5t74.5 54t92 23q74 0 102.5 -50t13.5 -141l-102 -577q-20 -114 15 -167.5t100 -53.5q43 0 87.5 28t82.5 71.5t77 108t69 124.5t62 133l89 503h153l-149 -849q-10 -59 1.5 -85t45.5 -26
q36 0 72.5 30.5t64.5 78t46 87t30 74.5z" />
    <glyph glyph-name="Uogonek" unicode="&#x172;" horiz-adv-x="1445" 
d="M1233 1442l2 10h334l-2 -10q-148 -20 -178 -162l-150 -774q-90 -468 -479 -516q-148 -108 -148 -228q0 -63 32.5 -92.5t80.5 -29.5q90 0 133 69l8 -4q-24 -71 -78 -108t-124 -37q-77 0 -124.5 40t-47.5 117t57.5 146t161.5 121h-39q-266 0 -390 138t-73 408l151 775
q25 129 -120 137l2 10h456l-2 -10q-78 -4 -120 -38t-54 -99l-157 -809q-42 -228 52 -347.5t296 -119.5q185 0 312.5 122.5t172.5 354.5l150 774q13 66 -14.5 109.5t-100.5 52.5z" />
    <glyph glyph-name="uogonek" unicode="&#x173;" horiz-adv-x="1212" 
d="M922 -348q90 0 133 69l8 -6q-24 -70 -78.5 -106.5t-124.5 -36.5q-77 0 -124.5 40.5t-47.5 115.5q0 148 193 256q-72 1 -100.5 53t-14.5 137l51 291q-212 -481 -452 -481q-107 0 -159 74.5t-24 226.5l99 561q19 119 -56 119q-91 0 -192 -208q-3 -6 -4 -9l-11 2
q18 44 34 78t45.5 81.5t60 78.5t74.5 54t92 23q74 0 102.5 -50t13.5 -141l-102 -577q-20 -114 15 -167.5t100 -53.5q43 0 87.5 28t82.5 71.5t77 108t69 124.5t62 133l89 503h153l-149 -849q-10 -59 1.5 -85t45.5 -26q36 0 72.5 30.5t64.5 78t46 87t30 74.5l12 -2
q-17 -46 -30 -79.5t-37.5 -83t-49 -84t-59.5 -66t-72 -45.5q-141 -104 -141 -221q0 -63 33.5 -92t81.5 -29z" />
    <glyph glyph-name="Wcircumflex" unicode="&#x174;" horiz-adv-x="2033" 
d="M1561 1556l-289 201l-352 -201l-5 5l375 381h17l260 -381zM1874 1442l2 10h354l-2 -10q-146 -24 -219 -174l-633 -1278h-45l-180 1204l-627 -1204h-45l-188 1315q-10 64 -38 97t-99 40l2 10h462l-2 -10q-90 -6 -126.5 -42.5t-26.5 -113.5l133 -1071l545 1049l-6 41
q-10 65 -38 97.5t-100 39.5l2 10h463l-2 -10q-89 -6 -125.5 -44.5t-27.5 -111.5l139 -1063l518 1043q12 24 17.5 41.5t6 39.5t-9.5 38t-36 31.5t-68 25.5z" />
    <glyph glyph-name="wcircumflex" unicode="&#x175;" horiz-adv-x="1556" 
d="M1229 1192l-305 225l-344 -225l-5 4l367 401h19l274 -401zM1448 1063q34 0 55 -22.5t21 -61.5q0 -74 -43 -195t-156 -335q-71 -139 -140.5 -242.5t-162.5 -220.5h-29l-112 716q-46 -143 -115 -284q-47 -92 -103.5 -178.5t-90 -130t-97.5 -123.5h-31l-168 858
q-12 65 -30 93t-49 28q-39 0 -82 -57.5t-78 -157.5h-10q85 315 252 315q32 0 57 -13t40 -31t27 -50t17.5 -55.5t13.5 -63.5l129 -715q101 130 176 293q58 136 80.5 233t22.5 195q0 51 -14 96.5t-35 69.5q14 16 46.5 27.5t69.5 11.5q34 0 51 -16t23 -54l125 -839
q114 151 190 307q101 197 101 430q0 79 -33 129q10 17 32.5 30t49.5 13z" />
    <glyph glyph-name="Ycircumflex" unicode="&#x176;" horiz-adv-x="1269" 
d="M1161 1556l-287 201l-352 -201l-6 5l375 381h18l258 -381zM1106 1442l2 10h356l-2 -10q-128 -26 -239 -174l-484 -650l-92 -471q-27 -129 121 -137l-2 -10h-457l2 10q83 4 122 39t50 98l92 461l-260 697q-25 67 -53 96.5t-90 40.5l2 10h449l-2 -10q-44 -9 -72.5 -23.5
t-41.5 -31t-15.5 -39t1.5 -41.5t13 -45l221 -596l444 600q34 47 43 79.5t-16 59t-92 37.5z" />
    <glyph glyph-name="ycircumflex" unicode="&#x177;" horiz-adv-x="1044" 
d="M983 1192l-305 227l-344 -227l-6 4l368 401h17l276 -401zM940 1063q32 0 51 -20.5t19 -57.5q0 -152 -215 -569q-128 -255 -265 -430q-131 -167 -278.5 -266.5t-355.5 -141.5v125q362 37 571 260l-191 891q-13 68 -32 96.5t-49 28.5q-40 0 -81.5 -54t-80.5 -161h-13
q41 146 107 223.5t149 77.5q30 0 53.5 -11.5t37.5 -27t26 -45.5t18 -52.5t15 -62.5l156 -751q108 151 186 313q121 245 121 457q0 83 -35 135q28 43 86 43z" />
    <glyph glyph-name="Ydieresis" unicode="&#x178;" horiz-adv-x="1269" 
d="M649 1614q-51 0 -86 34t-35 83t35 82.5t86 33.5q50 0 84.5 -33.5t34.5 -82.5t-34.5 -83t-84.5 -34zM1108 1614q-51 0 -86 34t-35 83t35 82.5t86 33.5q50 0 84.5 -33.5t34.5 -82.5t-34.5 -83t-84.5 -34zM1106 1442l2 10h356l-2 -10q-128 -26 -239 -174l-484 -650l-92 -471
q-27 -129 121 -137l-2 -10h-457l2 10q83 4 122 39t50 98l92 461l-260 697q-25 67 -53 96.5t-90 40.5l2 10h449l-2 -10q-44 -9 -72.5 -23.5t-41.5 -31t-15.5 -39t1.5 -41.5t13 -45l221 -596l444 600q34 47 43 79.5t-16 59t-92 37.5z" />
    <glyph glyph-name="Zacute" unicode="&#x179;" horiz-adv-x="1284" 
d="M1083 1776l-6 -31l-491 -189l-4 5l368 340zM201 37l364 2q64 0 111.5 4t102 16t97.5 33t90 56t86.5 85t80.5 120.5t79 160.5h13l-187 -514h-1056l1136 1415h-356q-229 0 -350 -82.5t-226 -314.5h-10l148 434h1009z" />
    <glyph glyph-name="zacute" unicode="&#x17a;" horiz-adv-x="970" 
d="M854 1567v-31l-422 -342l-6 4l281 412zM219 1044h733l-4 -24l-766 -991h275q61 0 113.5 18t107 61t105 123.5t94.5 196.5h12l-135 -428h-768l784 1016h-258q-124 0 -222.5 -81t-178.5 -271h-13z" />
    <glyph glyph-name="Zdotaccent" unicode="&#x17b;" horiz-adv-x="1284" 
d="M848 1614q-51 0 -86 34t-35 85q0 49 35 81.5t86 32.5q48 0 83.5 -32.5t35.5 -81.5q0 -50 -35.5 -84.5t-83.5 -34.5zM201 37l364 2q64 0 111.5 4t102 16t97.5 33t90 56t86.5 85t80.5 120.5t79 160.5h13l-187 -514h-1056l1136 1415h-356q-229 0 -350 -82.5t-226 -314.5h-10
l148 434h1009z" />
    <glyph glyph-name="zdotaccent" unicode="&#x17c;" horiz-adv-x="970" 
d="M637 1276q-51 0 -86 34t-35 85q0 49 35 81.5t86 32.5q48 0 83.5 -32.5t35.5 -81.5q0 -50 -35.5 -84.5t-83.5 -34.5zM219 1044h733l-4 -24l-766 -991h275q61 0 113.5 18t107 61t105 123.5t94.5 196.5h12l-135 -428h-768l784 1016h-258q-124 0 -222.5 -81t-178.5 -271h-13z
" />
    <glyph glyph-name="Zcaron" unicode="&#x17d;" horiz-adv-x="1284" 
d="M1186 1946l-375 -381h-18l-258 381l6 4l286 -201l353 201zM201 37l364 2q64 0 111.5 4t102 16t97.5 33t90 56t86.5 85t80.5 120.5t79 160.5h13l-187 -514h-1056l1136 1415h-356q-229 0 -350 -82.5t-226 -314.5h-10l148 434h1009z" />
    <glyph glyph-name="zcaron" unicode="&#x17e;" horiz-adv-x="970" 
d="M967 1593l-369 -401h-16l-277 401l6 4l305 -227l345 227zM111 664h-13l121 380h733l-4 -24l-766 -991h275q61 0 113.5 18t107 61t105 123.5t94.5 196.5h12l-135 -428h-768l784 1016h-258q-124 0 -222.5 -81t-178.5 -271z" />
    <glyph glyph-name="uni01EA" unicode="&#x1ea;" horiz-adv-x="1611" 
d="M776 -16q-151 -103 -151 -228q0 -63 33 -93t81 -30q90 0 133 70l9 -4q-24 -71 -78.5 -108t-124.5 -37q-77 0 -124.5 40t-47.5 117q0 79 60.5 150.5t168.5 122.5q-264 2 -436 174t-172 434q0 175 63.5 336.5t173 282t265 192.5t329.5 72t313.5 -79t218.5 -218t79 -312
q0 -228 -101 -425.5t-284 -321.5t-408 -135zM301 569q0 -245 118 -397t324 -152q184 0 335 121t234 319.5t83 428.5q0 244 -119 396.5t-326 152.5q-181 0 -331 -121t-234 -320t-84 -428z" />
    <glyph glyph-name="uni01EB" unicode="&#x1eb;" horiz-adv-x="1058" 
d="M473 -16q-137 -100 -137 -220q0 -63 33.5 -92.5t81.5 -29.5q91 0 131 69l8 -4q-22 -69 -77 -106t-124 -37q-78 0 -126 40t-48 115q0 77 56 145t157 120q-159 8 -256.5 121.5t-97.5 293.5q0 181 73 335t196.5 242.5t266.5 88.5q170 0 274.5 -116t104.5 -302
q0 -177 -69 -327t-187.5 -239t-259.5 -97zM227 379q0 -161 63 -261t175 -100q103 0 190 101t134 250t47 301q0 161 -60.5 259.5t-167.5 98.5q-80 0 -152.5 -58t-121.5 -150.5t-78 -208.5t-29 -232z" />
    <glyph glyph-name="AEacute" unicode="&#x1fc;" horiz-adv-x="2072" 
d="M1755 1776l-6 -31l-492 -189l-4 5l369 340zM2071 1452l-39 -399h-11q-3 197 -69 278q-71 82 -230 82h-206q-65 0 -96.5 -20.5t-41.5 -73.5l-104 -541h309q69 0 123 48t74 126h10l-82 -413h-8q12 89 -24.5 143.5t-114.5 54.5h-295l-117 -598q-10 -55 13.5 -77.5
t90.5 -22.5h144q271 0 377 92q94 78 204 346h11l-160 -477h-1012l2 10q146 8 170 137l115 590h-404l-507 -553q-68 -68 -68 -118q0 -25 25 -37t94 -19l-2 -10h-387l2 10q79 10 146 55.5t153 137.5l1063 1149q-6 84 -121 90l2 10h971zM1212 1294l-473 -516h373z" />
    <glyph glyph-name="aeacute" unicode="&#x1fd;" horiz-adv-x="1509" 
d="M1133 1567v-31l-422 -342l-6 4l278 412zM1425 375l11 -4q-54 -181 -162.5 -284t-263.5 -103q-160 0 -248 110t-88 287q-156 -397 -373 -397q-107 0 -174.5 82t-67.5 235q0 145 47.5 286t123.5 245.5t178 168.5t206 64q163 0 258 -141q138 141 306 141q108 0 175.5 -58
t67.5 -157q0 -77 -38 -144t-100 -114.5t-145 -84.5t-169.5 -58t-177.5 -31q13 -141 87 -230.5t205 -89.5q116 0 204 72.5t138 204.5zM379 80q56 0 114.5 52.5t102.5 127.5t80 168q6 131 52.5 255.5t123.5 217.5q-87 135 -236 135q-105 0 -199.5 -93.5t-152 -251
t-57.5 -333.5q0 -143 46 -210.5t126 -67.5zM1112 1020q-127 -2 -226.5 -151t-99.5 -384v-32q241 25 369.5 118.5t128.5 241.5q0 103 -51.5 156t-120.5 51z" />
    <glyph glyph-name="Oslashacute" unicode="&#x1fe;" horiz-adv-x="1611" 
d="M1376 1776l-6 -31l-491 -189l-7 5l369 340zM1331 1554l-82 -147q148 -74 234 -217t86 -324q0 -175 -63 -336.5t-172 -281.5t-265 -192t-332 -72q-135 0 -250 47l-84 -152l-38 21l84 149q-149 74 -235.5 218t-86.5 325q0 175 63.5 336.5t173 282t265 192.5t329.5 72
q137 0 252 -50l82 148zM301 569q0 -151 46 -269.5t134 -190.5l701 1263q-101 66 -232 66q-181 0 -331 -121t-234 -320t-84 -428zM743 20q184 0 335 121t234 319.5t83 428.5q0 150 -46 268.5t-132 190.5l-701 -1264q98 -64 227 -64z" />
    <glyph glyph-name="oslashacute" unicode="&#x1ff;" horiz-adv-x="1058" 
d="M891 1567v-31l-422 -342l-4 4l278 412zM985 1094l33 -27l-117 -139q88 -111 88 -281q0 -137 -43.5 -260.5t-116.5 -211.5t-173 -139.5t-210 -51.5q-150 0 -253 98l-109 -131l-35 26l115 138q-90 114 -90 284q0 181 73 335t196.5 242.5t266.5 88.5q160 0 264 -104z
M227 379q0 -91 21 -164l555 659q-28 73 -78 113.5t-117 40.5q-80 0 -152.5 -58t-121.5 -150.5t-78 -208.5t-29 -232zM836 670q0 83 -19 157l-553 -659q30 -71 81.5 -110.5t119.5 -39.5q103 0 190 101t134 250t47 301z" />
    <glyph glyph-name="uni0218" unicode="&#x218;" horiz-adv-x="1165" 
d="M471 -14q-263 0 -416 84l37 389h4q35 -237 99 -318q44 -55 127 -85.5t186 -30.5q198 0 311 92.5t113 249.5q0 114 -78 187t-266 136q-189 66 -270.5 151t-81.5 206q0 130 71 227.5t192 148t273 50.5q221 0 369 -74l-31 -348h-4q-15 117 -36 182.5t-56 101.5
q-91 101 -289 101q-157 0 -262 -83t-105 -212q0 -104 76 -171t264 -134q188 -66 272.5 -154t84.5 -215q0 -217 -160 -349t-424 -132zM334 -434l-4 24q119 21 119 88q0 22 -17 42t-34 43t-17 53q0 43 27 67.5t71 24.5q46 0 70 -29t24 -78q0 -94 -68 -157.5t-171 -77.5z" />
    <glyph glyph-name="uni0219" unicode="&#x219;" horiz-adv-x="860" 
d="M367 -16q-86 0 -168.5 20t-137.5 55l27 322h4q9 -104 22.5 -155.5t39.5 -90.5q78 -117 245 -117q107 0 173.5 56t66.5 145q0 82 -55.5 142.5t-177.5 115.5q-130 58 -191 125t-61 156q0 137 97 222t257 85q136 0 274 -55l-20 -279h-4q-14 135 -64 207q-29 44 -86 68
t-127 24q-104 0 -165.5 -48t-61.5 -126q0 -64 50.5 -111.5t178.5 -109.5q139 -70 197.5 -139.5t58.5 -169.5q0 -154 -102 -248t-270 -94zM215 -436l-4 24q121 21 121 88q0 22 -17.5 42t-35 43t-17.5 53q0 43 27 67.5t71 24.5q46 0 71.5 -29.5t25.5 -77.5q0 -93 -69 -156
t-173 -79z" />
    <glyph glyph-name="uni021A" unicode="&#x21a;" horiz-adv-x="1253" 
d="M1364 1452l-41 -414h-8q3 215 -70 305q-55 70 -170 70h-110q-80 0 -97 -88l-227 -1178q-14 -67 12 -100t107 -37l-2 -10h-455l2 10q82 4 121.5 38.5t52.5 98.5l228 1178q9 46 -7 67t-59 21h-111q-128 0 -211 -76q-98 -84 -180 -299h-8l121 414h1112zM510 -94q48 0 72 -29
t24 -78q0 -93 -68 -156t-171 -79l-5 24q119 22 119 88q0 22 -16.5 42t-33.5 43t-17 53q0 43 26 67.5t70 24.5z" />
    <glyph glyph-name="uni021B" unicode="&#x21b;" horiz-adv-x="765" 
d="M334 -16q-97 0 -138 67.5t-16 192.5l144 762h-246l2 8l244 94l202 235h6l-57 -299h373l-8 -38h-371l-137 -742q-34 -182 84 -182q76 0 152 81.5t141 217.5l10 -2q-69 -172 -169.5 -283.5t-215.5 -111.5zM166 -436l-6 24q121 21 121 88q0 22 -17 42t-34 43t-17 53
q0 43 26 67.5t70 24.5q46 0 71.5 -29.5t25.5 -77.5q0 -93 -68.5 -156t-171.5 -79z" />
    <glyph glyph-name="uni0237" unicode="&#x237;" horiz-adv-x="530" 
d="M-78 -434q-81 0 -129.5 49.5t-48.5 122.5q0 68 37 113t90 45q28 0 42.5 -17.5t14.5 -42.5t-12 -40t-29 -22.5t-34 -15.5t-29 -25t-12 -44q0 -44 28.5 -69.5t79.5 -25.5q148 0 189 222l188 1036q20 113 -57 113q-56 0 -108.5 -67t-88.5 -150l-10 2q19 48 37.5 87
t47.5 83.5t59.5 74.5t72.5 50t88 20q73 0 102.5 -49t10.5 -142l-175 -956q-17 -91 -52.5 -160t-83 -110t-102.5 -61.5t-116 -20.5z" />
    <glyph glyph-name="circumflex" unicode="&#x2c6;" horiz-adv-x="741" 
d="M569 1597l275 -401l-6 -4l-306 225l-344 -225l-4 4l367 401h18z" />
    <glyph glyph-name="caron" unicode="&#x2c7;" horiz-adv-x="741" 
d="M549 1372l344 225l4 -4l-367 -401h-16l-276 401l6 4z" />
    <glyph glyph-name="breve" unicode="&#x2d8;" horiz-adv-x="724" 
d="M494 1212q-125 0 -197 73t-72 194q0 27 13 98l4 2q5 -108 78 -172t200 -64q122 0 218 63t139 173l4 -2q-36 -169 -131.5 -267t-255.5 -98z" />
    <glyph glyph-name="dotaccent" unicode="&#x2d9;" horiz-adv-x="325" 
d="M332 1276q-51 0 -86 34t-35 85q0 49 35 81.5t86 32.5q50 0 84.5 -32.5t34.5 -81.5q0 -51 -34.5 -85t-84.5 -34z" />
    <glyph glyph-name="ring" unicode="&#x2da;" horiz-adv-x="485" 
d="M500 1188q-83 0 -142 59t-59 142q0 82 59 140t142 58q82 0 140 -58t58 -140q0 -83 -58 -142t-140 -59zM500 1241q60 0 102.5 42.5t42.5 102.5q0 61 -42.5 104.5t-102.5 43.5q-62 0 -105 -43t-43 -105q0 -60 43.5 -102.5t104.5 -42.5z" />
    <glyph glyph-name="ogonek" unicode="&#x2db;" horiz-adv-x="458" 
d="M0 -426q-78 0 -126 40.5t-48 117.5q0 93 81 172t224 131h12q-196 -115 -196 -258q0 -63 33 -93t81 -30q92 0 132 70l8 -5q-22 -71 -77 -108t-124 -37z" />
    <glyph glyph-name="tilde" unicode="&#x2dc;" horiz-adv-x="698" 
d="M190 1276l-4 2q4 109 56 171t125 62q51 0 103.5 -23.5t101.5 -47t92 -23.5q53 0 96.5 29.5t62.5 85.5l4 -2q-4 -110 -54.5 -171t-125.5 -61q-41 0 -82 14.5t-69.5 32t-67 32t-76.5 14.5q-52 0 -96.5 -29.5t-65.5 -85.5z" />
    <glyph glyph-name="hungarumlaut" unicode="&#x2dd;" horiz-adv-x="720" 
d="M563 1536l-289 -346l-6 2l115 428l180 -53v-31zM946 1536l-287 -346l-6 2l113 428l180 -53v-31z" />
    <glyph glyph-name="gravecomb" unicode="&#x300;" 
d="M92 1198l-4 -4l-434 342v31l192 53z" />
    <glyph glyph-name="acutecomb" unicode="&#x301;" 
d="M141 1536l-422 -342l-4 4l279 412l147 -43v-31z" />
    <glyph glyph-name="uni0302" unicode="&#x302;" 
d="M-180 1597l274 -401l-6 -4l-305 225l-344 -225l-4 4l366 401h19z" />
    <glyph glyph-name="tildecomb" unicode="&#x303;" 
d="M-512 1276l-4 2q4 109 55.5 171t124.5 62q51 0 103.5 -23.5t101.5 -47t92 -23.5q54 0 97.5 29.5t62.5 85.5l4 -2q-4 -110 -54.5 -171t-125.5 -61q-41 0 -82 14.5t-69.5 32t-67 32t-76.5 14.5q-52 0 -96.5 -29.5t-65.5 -85.5z" />
    <glyph glyph-name="uni0304" unicode="&#x304;" 
d="M117 1352h-543l6 43h543z" />
    <glyph glyph-name="uni0306" unicode="&#x306;" 
d="M-223 1212q-124 0 -195.5 72.5t-73.5 194.5q0 27 13 98l4 2q5 -108 78 -172t200 -64q122 0 219 63.5t138 172.5l4 -2q-36 -169 -131.5 -267t-255.5 -98z" />
    <glyph glyph-name="uni0307" unicode="&#x307;" 
d="M4 1276q-51 0 -86 34t-35 85q0 49 35 81.5t86 32.5q50 0 84.5 -32.5t34.5 -81.5q0 -51 -34.5 -85t-84.5 -34z" />
    <glyph glyph-name="uni0308" unicode="&#x308;" 
d="M-406 1276q-51 0 -85.5 34t-34.5 85q0 49 34.5 81.5t85.5 32.5q50 0 84.5 -32.5t34.5 -81.5q0 -51 -34.5 -85t-84.5 -34zM8 1276q-51 0 -86 34t-35 85q0 49 35 81.5t86 32.5q50 0 84.5 -32.5t34.5 -81.5q0 -51 -34.5 -85t-84.5 -34z" />
    <glyph glyph-name="uni030A" unicode="&#x30a;" 
d="M-94 1188q-83 0 -142 59t-59 142q0 82 59 140t142 58q82 0 140 -58t58 -140q0 -83 -58 -142t-140 -59zM-94 1241q60 0 102.5 42.5t42.5 102.5q0 61 -42.5 104.5t-102.5 43.5q-63 0 -106.5 -43t-43.5 -105q0 -60 43.5 -102.5t106.5 -42.5z" />
    <glyph glyph-name="uni030B" unicode="&#x30b;" 
d="M-236 1536l-288 -346l-6 2l114 428l180 -53v-31zM147 1536l-286 -346l-6 2l112 428l180 -53v-31z" />
    <glyph glyph-name="uni030C" unicode="&#x30c;" 
d="M-201 1372l344 225l4 -4l-366 -401h-17l-276 401l6 4z" />
    <glyph glyph-name="uni0312" unicode="&#x312;" 
d="M4 1237q-43 0 -66.5 30t-23.5 79q0 88 68 152.5t176 86.5l4 -20q-125 -29 -125 -90q0 -22 17 -43.5t34.5 -46t17.5 -54.5q0 -45 -27.5 -69.5t-74.5 -24.5z" />
    <glyph glyph-name="uni0326" unicode="&#x326;" 
d="M-426 -436l-4 24q119 21 119 88q0 22 -17 42t-34 43t-17 53q0 43 27 67.5t71 24.5q46 0 70.5 -29t24.5 -78q0 -94 -68 -156.5t-172 -78.5z" />
    <glyph glyph-name="uni0327" unicode="&#x327;" 
d="M-381 -414q-78 0 -130.5 37.5t-66.5 100.5l9 4q38 -78 143 -78q63 0 101 32t38 89q0 36 -25 60t-67 24q-23 0 -63 -11l86 164h34l-59 -114q44 14 86 14q62 0 98.5 -33.5t36.5 -91.5q0 -95 -62.5 -146t-158.5 -51z" />
    <glyph glyph-name="uni0328" unicode="&#x328;" 
d="M-369 -426q-77 0 -124.5 40.5t-47.5 117.5q0 92 80.5 171.5t222.5 131.5h15q-199 -115 -199 -258q0 -63 33.5 -93t81.5 -30q90 0 133 70l8 -5q-24 -71 -78.5 -108t-124.5 -37z" />
    <glyph glyph-name="uni0335" unicode="&#x335;" 
d="M-39 551h-653v39h653v-39z" />
    <glyph glyph-name="uni0336" unicode="&#x336;" 
d="M23 1092h-1453l5 38h1452z" />
    <glyph glyph-name="uni0337" unicode="&#x337;" 
d="M-2 862l-510 -239l-18 39l512 239z" />
    <glyph glyph-name="uni0338" unicode="&#x338;" 
d="M25 1069l-934 -1114l-33 27l934 1114z" />
    <glyph glyph-name="uni0401" unicode="&#x401;" horiz-adv-x="1247" 
d="M608 1614q-51 0 -85 33.5t-34 83.5t34 83t85 33q50 0 85.5 -33.5t35.5 -82.5t-35.5 -83t-85.5 -34zM1067 1614q-51 0 -86 34t-35 83t35 82.5t86 33.5q50 0 84.5 -33.5t34.5 -82.5t-34.5 -83t-84.5 -34zM1247 1452l-41 -399h-8q-3 197 -72 278q-71 82 -229 82h-205
q-64 0 -95.5 -20.5t-41.5 -73.5l-104 -541h309q67 0 120.5 48t75.5 126h9l-80 -413h-8q11 90 -25.5 144t-116.5 54h-293l-116 -598q-10 -55 13 -77.5t89 -22.5h145q269 0 375 92q44 37 99.5 127.5t107.5 218.5h8l-157 -477h-1012l2 10q146 8 170 137l223 1158
q12 65 -14.5 99t-100.5 38l2 10h971z" />
    <glyph glyph-name="uni0410" unicode="&#x410;" horiz-adv-x="1370" 
d="M840 1464l45 -2l280 -1315q8 -34 15 -53t21.5 -39.5t39 -30.5t62.5 -14l-3 -10h-460l2 10q82 6 120.5 29.5t38.5 77.5q0 15 -6 49l-59 293h-633l-153 -266q-37 -55 -37 -105q0 -34 28 -51.5t95 -26.5l-3 -10h-354l2 10q76 12 125.5 58.5t97.5 130.5zM926 500l-156 766
l-442 -766h598z" />
    <glyph glyph-name="uni0411" unicode="&#x411;" horiz-adv-x="1304" 
d="M455 791h221q265 0 391.5 -92t124.5 -248q-3 -210 -167 -330.5t-445 -120.5h-588l2 10q80 4 121 37.5t53 99.5l223 1158q27 129 -121 137l2 10h949l-41 -408h-9q0 120 -16.5 185t-50.5 106q-34 43 -89.5 60.5t-140.5 17.5h-182q-119 0 -137 -100zM1018 453q2 141 -86 219
t-279 78h-207l-112 -580q-14 -68 15 -99.5t104 -31.5h133q208 0 320 112t112 302z" />
    <glyph glyph-name="uni0412" unicode="&#x412;" horiz-adv-x="1312" 
d="M838 774q180 -24 271 -106.5t91 -212.5q0 -212 -168.5 -333.5t-458.5 -121.5h-583l2 10q79 6 120.5 39t53.5 98l223 1158q14 65 -13.5 99t-105.5 38l2 10h576q209 0 315.5 -75t106.5 -210q0 -162 -113 -262t-319 -131zM831 1415h-126q-133 0 -154 -112l-100 -512h221
q198 0 316 98.5t118 269.5q0 124 -70.5 190t-204.5 66zM457 39h129q206 0 324 114.5t118 311.5q0 135 -89 210t-263 75h-232l-112 -576q-24 -135 125 -135z" />
    <glyph glyph-name="uni0413" unicode="&#x413;" horiz-adv-x="1017" 
d="M1130 1452l-40 -408h-9q0 120 -16 185.5t-51 109.5q-54 74 -180 74h-148q-115 0 -135 -108l-219 -1145q-14 -68 18 -104t135 -46l-2 -10h-491l2 10q149 8 174 135l221 1160q12 65 -15 99t-104 38l2 10h858z" />
    <glyph glyph-name="uni0414" unicode="&#x414;" horiz-adv-x="1269" 
d="M420 1452h938l-2 -10q-145 -8 -170 -137l-225 -1158q-11 -64 16.5 -97.5t103.5 -37.5v-8l-57 -287h-8q23 143 -22 213t-181 70h-678q-135 0 -206 -69.5t-105 -213.5h-10l67 326h101q238 307 353.5 571.5t205.5 700.5q13 119 -123 127zM45 43h733l264 1366h-430
q-93 -487 -208.5 -767t-358.5 -599z" />
    <glyph glyph-name="uni0415" unicode="&#x415;" horiz-adv-x="1247" 
d="M1247 1452l-41 -399h-8q-3 197 -72 278q-71 82 -229 82h-205q-64 0 -95.5 -20.5t-41.5 -73.5l-104 -541h309q67 0 120.5 48t75.5 126h9l-80 -413h-8q11 90 -25.5 144t-116.5 54h-293l-116 -598q-10 -55 13 -77.5t89 -22.5h145q269 0 375 92q44 37 99.5 127.5t107.5 218.5
h8l-157 -477h-1012l2 10q146 8 170 137l223 1158q12 65 -14.5 99t-100.5 38l2 10h971z" />
    <glyph glyph-name="uni0416" unicode="&#x416;" horiz-adv-x="2080" 
d="M1835 1442l2 10h393v-10q-116 -21 -291 -162l-509 -440l391 -693q35 -65 73 -96t109 -41l-2 -10h-442l2 10q100 14 100 66q0 29 -23 71l-342 596h-135l-114 -596q-25 -129 118 -137l-2 -10h-438l2 10q74 4 112 38t50 99l115 596h-132l-567 -596q-22 -24 -30 -34.5
t-17.5 -27t-9.5 -30.5q0 -35 80 -45l-2 -10h-451l2 10q76 10 127 41.5t109 95.5l659 695l-338 438q-117 141 -229 162l2 10h391v-10q-59 -10 -90 -36t-31 -63q-2 -24 14.5 -52.5t65.5 -86.5l326 -422h129l98 523q11 62 -15 97.5t-104 39.5l2 10h451l-2 -10q-80 -4 -121 -38
t-53 -99l-99 -523h125l475 412q88 70 121 108t33 74q2 25 -19.5 42t-68.5 24z" />
    <glyph glyph-name="uni0417" unicode="&#x417;" horiz-adv-x="1130" 
d="M588 772q201 -15 314.5 -100t113.5 -236q0 -143 -84.5 -247t-221.5 -154.5t-307 -50.5q-96 0 -198 22.5t-174 63.5l28 389h4q35 -235 97 -318q41 -55 116 -85.5t154 -30.5q191 0 300.5 108t109.5 287q0 157 -106.5 244t-321.5 90l8 34q222 5 353.5 107.5t131.5 292.5
q0 113 -70 180.5t-198 67.5q-71 0 -143.5 -21.5t-110.5 -54.5q-79 -69 -193 -307h-4l103 370q164 52 354 52q205 0 317.5 -75t112.5 -214q0 -172 -130 -274.5t-355 -139.5z" />
    <glyph glyph-name="uni0418" unicode="&#x418;" horiz-adv-x="1536" 
d="M1169 1442l2 10h455l-2 -10q-79 -4 -119 -38.5t-53 -98.5l-225 -1158q-25 -129 119 -137l-3 -10h-452l2 10q78 6 119 40t53 97l199 1022l-918 -925l-18 -97q-12 -64 15 -98.5t103 -38.5l-2 -10h-454l2 10q151 8 174 137l223 1158q26 129 -119 137l2 10h455l-2 -10
q-78 -6 -119 -40t-53 -97l-193 -992l918 926l12 66q23 129 -121 137z" />
    <glyph glyph-name="uni0419" unicode="&#x419;" horiz-adv-x="1536" 
d="M946 1559q-123 0 -198.5 58.5t-75.5 158.5q0 60 26 103.5t80 43.5q30 0 52 -19.5t22 -50.5q0 -26 -9.5 -45.5t-21 -28.5t-21 -25t-9.5 -36q0 -54 48 -83t136 -29q129 0 226 71.5t138 212.5l7 -2q-39 -158 -145 -243.5t-255 -85.5zM1169 1442l2 10h455l-2 -10
q-79 -4 -119 -38.5t-53 -98.5l-225 -1158q-25 -129 119 -137l-3 -10h-452l2 10q78 6 119 40t53 97l199 1022l-918 -925l-18 -97q-12 -64 15 -98.5t103 -38.5l-2 -10h-454l2 10q151 8 174 137l223 1158q26 129 -119 137l2 10h455l-2 -10q-78 -6 -119 -40t-53 -97l-193 -992
l918 926l12 66q23 129 -121 137z" />
    <glyph glyph-name="uni041A" unicode="&#x41a;" horiz-adv-x="1376" 
d="M1133 1442l2 10h395l-2 -10q-115 -21 -295 -162l-516 -408l401 -725q24 -43 44.5 -68t55 -43.5t82.5 -25.5l-2 -10h-450l2 10q98 14 98 70q0 27 -22 67l-344 621l-158 -123l-96 -498q-12 -65 15 -99t103 -38l-2 -10h-454l2 10q150 8 174 137l223 1158q14 65 -13.5 99
t-105.5 38l2 10h457l-2 -10q-79 -6 -120.5 -39t-53.5 -98l-119 -607l696 547q91 75 91 129q0 55 -88 68z" />
    <glyph glyph-name="uni041B" unicode="&#x41b;" horiz-adv-x="1286" 
d="M393 1452h979l-2 -10q-147 -8 -172 -137l-223 -1158q-20 -129 121 -137l-2 -10h-453l2 10q148 9 170 137l244 1266h-477q-123 -571 -172 -757q-107 -400 -226 -550q-95 -120 -221 -120q-92 0 -92 69q0 38 23.5 61t60.5 23q18 0 41 -9t45 -9q36 0 70 21t65.5 66
t59.5 100.5t57 141.5t54 171t54.5 206t54 229.5t56.5 258.5q13 53 -17.5 88.5t-101.5 38.5z" />
    <glyph glyph-name="uni041C" unicode="&#x41c;" horiz-adv-x="1779" 
d="M1530 1452h268l-2 -10q-63 -13 -97.5 -44.5t-45.5 -99.5l-150 -1151q-6 -66 19.5 -99.5t99.5 -37.5l-2 -10h-457l2 10q160 9 176 137l152 1156l-731 -1264h-47l-256 1253l-287 -1132q-35 -139 119 -150l-2 -10h-336l2 10q79 7 119.5 45t56.5 105l291 1140q13 69 -11 100
t-92 42l3 10h272l246 -1192z" />
    <glyph glyph-name="uni041D" unicode="&#x41d;" horiz-adv-x="1536" 
d="M1169 1442l2 10h455l-2 -10q-79 -4 -119 -38.5t-53 -98.5l-225 -1158q-25 -129 119 -137l-3 -10h-452l2 10q78 6 119 40t53 97l115 594h-738l-114 -594q-12 -64 15 -98.5t103 -38.5l-2 -10h-454l2 10q151 8 174 137l223 1158q26 129 -119 137l2 10h455l-2 -10
q-78 -6 -119 -40t-53 -97l-102 -525h737l102 525q23 129 -121 137z" />
    <glyph glyph-name="uni041E" unicode="&#x41e;" horiz-adv-x="1611" 
d="M737 -16q-131 0 -244.5 46t-193.5 126.5t-126 193.5t-46 242q0 175 63.5 336.5t173 282t265 192.5t329.5 72t313.5 -79t218.5 -218t79 -312q0 -175 -63 -336.5t-172 -281.5t-265 -192t-332 -72zM743 20q184 0 335 121t234 319.5t83 428.5q0 244 -119 396.5t-326 152.5
q-181 0 -331 -121t-234 -320t-84 -428q0 -245 118 -397t324 -152z" />
    <glyph glyph-name="uni041F" unicode="&#x41f;" horiz-adv-x="1536" 
d="M272 1452h1354l-2 -10q-79 -4 -119 -38.5t-53 -98.5l-225 -1158q-25 -129 119 -137l-3 -10h-452l2 10q78 6 119 40t53 97l246 1266h-738l-245 -1266q-12 -64 15 -98.5t103 -38.5l-2 -10h-454l2 10q151 8 174 137l223 1158q26 129 -119 137z" />
    <glyph glyph-name="uni0420" unicode="&#x420;" horiz-adv-x="1239" 
d="M819 1452q239 0 354 -97.5t115 -267.5q0 -249 -195 -385.5t-536 -136.5h-147l-76 -391q-19 -87 9 -122t128 -42l-2 -10h-479l2 10q80 4 121 38t53 99l225 1158q12 65 -15.5 99t-103.5 38l2 10h545zM418 606h145q261 0 407 123t146 342q0 159 -80 251.5t-235 92.5h-111
q-115 0 -139 -117z" />
    <glyph glyph-name="uni0421" unicode="&#x421;" horiz-adv-x="1370" 
d="M670 -14q-246 0 -395.5 152.5t-149.5 414.5q0 199 63.5 370t174.5 291t266.5 188t333.5 68q237 0 411 -96l-37 -362h-2q-25 211 -108 297q-117 121 -334 121q-133 0 -250 -58.5t-199 -159.5t-129 -240.5t-47 -297.5q0 -257 137 -414.5t371 -157.5q166 0 302 87.5
t214 254.5l6 -2q-88 -224 -251 -340t-377 -116z" />
    <glyph glyph-name="uni0422" unicode="&#x422;" horiz-adv-x="1253" 
d="M1364 1452l-41 -414h-8q3 215 -70 305q-55 70 -170 70h-110q-80 0 -97 -88l-227 -1178q-14 -67 12 -100t107 -37l-2 -10h-455l2 10q82 4 121.5 38.5t52.5 98.5l228 1178q9 46 -7 67t-59 21h-111q-128 0 -211 -76q-98 -84 -180 -299h-8l121 414h1112z" />
    <glyph glyph-name="uni0423" unicode="&#x423;" horiz-adv-x="1273" 
d="M1114 1442l2 10h361l-2 -10q-44 -9 -74 -22t-59 -41t-52.5 -60.5t-62.5 -95.5l-594 -934q-98 -152 -191.5 -227.5t-193.5 -75.5q-43 0 -67 20.5t-23 56.5q0 37 26 56.5t58 19.5q25 0 57.5 -16.5t60.5 -16.5q64 0 113.5 40.5t108.5 132.5l-273 995q-13 45 -22 68t-26 47
t-42.5 36t-64.5 17l2 10h477l-4 -10q-103 -9 -137.5 -59t-4.5 -156l211 -764l482 758q34 54 40 98.5t-20 77.5t-86 45z" />
    <glyph glyph-name="uni0424" unicode="&#x424;" horiz-adv-x="1339" 
d="M772 285h-65l-27 -138q-24 -129 121 -137l-2 -10h-457l2 10q80 4 120.5 38.5t53.5 98.5l27 138h-74q-190 0 -300 98.5t-110 267.5q0 159 79.5 278.5t210.5 179.5t292 60h72l24 136q11 57 -16 95t-102 42v10h456v-10q-81 -4 -122.5 -38.5t-53.5 -98.5l-24 -136h77
q189 0 297.5 -98.5t108.5 -267.5q0 -160 -78 -279t-210.5 -179t-299.5 -60zM502 313h49l158 828h-47q-197 0 -323 -143.5t-126 -358.5q0 -146 75.5 -236t213.5 -90zM924 1141h-54l-157 -828h43q203 0 327.5 143.5t124.5 360.5q0 144 -74.5 234t-209.5 90z" />
    <glyph glyph-name="uni0425" unicode="&#x425;" horiz-adv-x="1280" 
d="M1087 1452h355l-2 -10q-69 -13 -136.5 -60.5t-123.5 -113.5l-408 -484l279 -637q26 -61 59.5 -95t91.5 -42l-2 -10h-459l2 10q42 9 69 23.5t40 30.5t15.5 38t-2 42t-15.5 46l-219 500l-426 -504q-25 -30 -38 -57t-12.5 -51.5t25 -42.5t72.5 -25l-2 -10h-363l2 10
q124 23 256 174l463 543l-258 578q-12 29 -22.5 47.5t-28 39.5t-42 33.5t-56.5 16.5l2 10h459l-3 -10q-66 -17 -97.5 -43t-30.5 -55.5t14 -63.5l205 -461l378 447q117 143 -43 176z" />
    <glyph glyph-name="uni0426" unicode="&#x426;" horiz-adv-x="1531" 
d="M1161 1442l2 10h455l-2 -10q-78 -4 -118.5 -39t-53.5 -98l-225 -1158q-12 -64 11.5 -93t108.5 -42l-2 -12l-51 -283h-10q21 144 -25 213.5t-188 69.5h-1071v10q151 8 174 137l223 1158q26 129 -119 137l2 10h455l-2 -10q-150 -8 -172 -137l-246 -1266h729l246 1266
q11 64 -16.5 98.5t-104.5 38.5z" />
    <glyph glyph-name="uni0427" unicode="&#x427;" horiz-adv-x="1421" 
d="M1053 1442l2 10h456l-2 -10q-80 -6 -121 -40t-53 -97l-225 -1158q-11 -65 16.5 -99t104.5 -38l-2 -10h-457l2 10q151 8 174 137l101 515q-151 -115 -367 -115q-261 0 -377 139t-65 399l41 220q27 128 -119 137v10h456v-10q-153 -9 -174 -137l-49 -254q-43 -216 45 -336.5
t285 -120.5t334 125l115 586q23 129 -121 137z" />
    <glyph glyph-name="uni0428" unicode="&#x428;" horiz-adv-x="2205" 
d="M1823 1442l2 10h454l-2 -10q-79 -4 -119 -39t-51 -98l-213 -1158q-11 -62 17.5 -96.5t105.5 -38.5l-2 -12h-2007l2 10q79 4 119 38.5t51 98.5l213 1158q23 129 -123 137l2 10h455l-2 -10q-79 -4 -119 -38.5t-51 -98.5l-231 -1266h612l233 1266q22 129 -122 137l2 10h454
l-2 -10q-79 -4 -119 -39t-51 -98l-233 -1266h614l234 1266q22 129 -123 137z" />
    <glyph glyph-name="uni0429" unicode="&#x429;" horiz-adv-x="2209" 
d="M1823 1442l2 10h454l-2 -10q-79 -4 -119 -39t-51 -98l-213 -1158q-11 -62 17.5 -96.5t105.5 -38.5l-2 -12l-51 -283h-8q20 144 -26.5 213.5t-188.5 69.5h-1733l2 10q79 4 119 38.5t51 98.5l213 1158q23 129 -123 137l2 10h455l-2 -10q-79 -4 -119 -38.5t-51 -98.5
l-231 -1266h612l233 1266q22 129 -122 137l2 10h454l-2 -10q-79 -4 -119 -39t-51 -98l-233 -1266h614l234 1266q22 129 -123 137z" />
    <glyph glyph-name="uni042A" unicode="&#x42a;" horiz-adv-x="1558" 
d="M715 791h223q259 0 387.5 -94.5t128.5 -250.5q-3 -208 -167.5 -327t-444.5 -119h-586l2 10q78 4 119 37.5t53 99.5l221 1158q12 45 -7 76.5t-58 31.5h-88q-100 0 -174 -67q-104 -90 -185 -302h-8l119 408h739l-2 -10q-150 -8 -172 -137zM717 39h131q207 0 319 111
t115 301q0 140 -89.5 219.5t-277.5 79.5h-208l-111 -576q-8 -70 19.5 -102.5t101.5 -32.5z" />
    <glyph glyph-name="uni042B" unicode="&#x42b;" horiz-adv-x="1712" 
d="M453 791h186q254 0 379.5 -91.5t122.5 -248.5q-1 -212 -160.5 -331.5t-437.5 -119.5h-551l2 10q80 4 120.5 37.5t51.5 99.5l223 1158q22 129 -119 137l2 10h453l-2 -10q-147 -8 -172 -137zM1341 1442l2 10h457l-2 -10q-79 -4 -120.5 -38.5t-53.5 -98.5l-221 -1158
q-12 -58 15.5 -95.5t105.5 -41.5l-2 -10h-457l2 10q150 8 172 137l223 1158q12 58 -16 95.5t-105 41.5zM969 455q2 141 -84.5 218t-268.5 77h-172l-110 -574q-12 -70 12 -103.5t94 -33.5h117q191 0 300.5 115.5t111.5 300.5z" />
    <glyph glyph-name="uni042C" unicode="&#x42c;" horiz-adv-x="1296" 
d="M451 791h223q259 0 387.5 -93t128.5 -247q0 -211 -165 -331t-447 -120h-586l2 10q80 4 120.5 37.5t51.5 99.5l223 1158q15 57 -13.5 95t-105.5 42l2 10h453l-2 -10q-147 -8 -172 -137zM453 39h133q208 0 320 112t112 304q0 138 -89.5 216.5t-277.5 78.5h-209l-110 -576
q-8 -72 19.5 -103.5t101.5 -31.5z" />
    <glyph glyph-name="uni042D" unicode="&#x42d;" horiz-adv-x="1306" 
d="M672 1473q276 0 430.5 -170.5t154.5 -454.5q0 -242 -106 -438.5t-299 -310t-436 -113.5q-240 0 -404 82l33 364h4q37 -216 107 -295q112 -112 305 -112q139 0 251.5 55.5t187.5 154t119.5 226.5t57.5 280h-379q-122 0 -157 -110h-9l50 262h6q-3 -52 25.5 -81.5
t91.5 -29.5h374q2 25 2 76q0 265 -105.5 419.5t-301.5 154.5q-180 0 -312 -111q-107 -90 -202 -295h-4l100 363q173 84 416 84z" />
    <glyph glyph-name="uni042E" unicode="&#x42e;" horiz-adv-x="2287" 
d="M1634 1475q174 0 313.5 -79t218.5 -218t79 -312q0 -175 -63.5 -336.5t-172.5 -281.5t-265.5 -192t-332.5 -72q-131 0 -244.5 46t-193.5 126.5t-126 193.5t-46 242q0 76 12 149h-371l-114 -594q-12 -64 15 -98.5t103 -38.5l-2 -10h-454l2 10q151 8 174 137l223 1158
q26 129 -119 137l2 10h455l-2 -10q-78 -6 -119 -40t-53 -97l-102 -525h368q31 145 104.5 272t178.5 221t243 148t289 54zM1419 20q111 0 212 46t179.5 127.5t137 190t89.5 238.5t31 267q0 244 -118.5 396.5t-323.5 152.5q-181 0 -331 -121t-234 -320t-84 -428
q0 -245 118 -397t324 -152z" />
    <glyph glyph-name="uni042F" unicode="&#x42f;" horiz-adv-x="1284" 
d="M1374 1452l-2 -10q-77 -4 -119.5 -38t-54.5 -99l-221 -1158q-24 -129 119 -137l-2 -10h-455l2 10q87 4 123.5 35.5t50.5 101.5l100 529h-90q-110 0 -180.5 -38.5t-128.5 -131.5l-246 -359q-51 -82 -116 -147h-283l2 10q70 10 113 39t82 86l303 422q80 117 209 135
q-157 30 -246 117t-86 221q1 137 78 234t201.5 142.5t281.5 45.5h565zM924 717l98 516q16 84 -15 133t-116 49h-111q-166 0 -264.5 -91t-99.5 -255q-2 -155 101.5 -253.5t289.5 -98.5h117z" />
    <glyph glyph-name="uni0430" unicode="&#x430;" horiz-adv-x="1126" 
d="M1108 354l10 -2q-14 -38 -21.5 -58t-27.5 -65t-36 -72t-42.5 -64t-52 -57.5t-60 -36t-71.5 -15.5q-77 0 -105.5 53t-13.5 137l51 295q-29 -75 -57.5 -137t-70 -129.5t-85 -113t-101 -75.5t-118.5 -30q-108 0 -178 82.5t-70 234.5q0 145 47 286t123.5 245.5t177.5 168.5
t203 64q70 0 125 -31.5t88 -81.5l8 43q95 19 162 78h4l-151 -883q-18 -106 47 -106q113 0 215 270zM752 543l63 362q-29 60 -81.5 95.5t-121.5 35.5q-103 0 -196.5 -93.5t-151 -251t-57.5 -333.5q0 -142 49 -210t129 -68q55 0 109.5 40t101 110.5t84 146.5t72.5 166z" />
    <glyph glyph-name="uni0431" unicode="&#x431;" horiz-adv-x="1060" 
d="M483 -16q-179 0 -278 128.5t-99 356.5q0 854 689 944q81 10 121 16t79 14t55.5 18t29 23.5t20.5 35.5h8q10 -49 -2 -93q-9 -59 -79 -87.5t-267 -51.5q-296 -37 -440.5 -188t-180.5 -475h2q71 200 206.5 314t295.5 114q173 0 281 -114t108 -296q0 -137 -43.5 -259.5
t-117 -210t-175 -138.5t-213.5 -51zM502 14q99 0 186.5 90.5t140 242t52.5 321.5q0 157 -66 254.5t-174 97.5q-101 0 -190 -88.5t-141 -236.5t-52 -316q0 -165 66 -265t178 -100z" />
    <glyph glyph-name="uni0432" unicode="&#x432;" horiz-adv-x="997" 
d="M602 561q301 -29 301 -250q0 -77 -37.5 -140.5t-98.5 -103.5t-136.5 -61.5t-155.5 -21.5q-194 0 -297.5 108.5t-103.5 298.5q0 185 72.5 339t202 244.5t288.5 90.5q149 0 227 -57t78 -162q0 -214 -340 -285zM635 1028q-143 0 -247.5 -133t-141.5 -332q208 6 330.5 42.5
t170.5 99t48 161.5q0 82 -44.5 122t-115.5 40zM483 18q112 0 188.5 77.5t76.5 203.5q0 205 -232 248q-156 -19 -276 -21q-13 -83 -13 -155q0 -165 63 -259t193 -94z" />
    <glyph glyph-name="uni0433" unicode="&#x433;" horiz-adv-x="983" 
d="M399 -16q-162 0 -247.5 68t-85.5 175q0 71 39 125t101 87t137 60t150 51.5t137 52.5t101 71t39 100q0 33 -11.5 62.5t-37.5 56t-75.5 42t-117.5 15.5q-143 0 -248 -69t-153 -187l-8 4q129 371 493 371q144 0 222.5 -66.5t78.5 -171.5q0 -61 -30.5 -109.5t-80 -79
t-113 -58t-129.5 -46.5t-129.5 -44t-113 -50.5t-80 -66.5t-30.5 -92q0 -33 13 -63.5t41 -58.5t82.5 -44.5t129.5 -16.5q285 0 385 250l8 -4q-63 -177 -180 -270.5t-287 -93.5z" />
    <glyph glyph-name="uni0434" unicode="&#x434;" horiz-adv-x="1038" 
d="M623 1563q123 0 208.5 -83.5t124.5 -221.5t39 -320q0 -202 -44 -380t-119 -303.5t-177.5 -198t-216.5 -72.5q-160 0 -260 118t-100 308q0 176 76 322.5t202 229t271 82.5q126 0 209 -51q-8 148 -39 255t-92 171t-146 64q-94 0 -156.5 -65.5t-107.5 -174.5l-6 2
q50 148 134.5 233t199.5 85zM453 20q80 0 150 62t122 173t82.5 276t30.5 360q0 45 -2 65q-66 54 -174 54q-121 0 -220.5 -86t-155 -232t-55.5 -319q0 -169 62 -261t160 -92z" />
    <glyph glyph-name="uni0435" unicode="&#x435;" horiz-adv-x="907" 
d="M823 375l11 -4q-54 -181 -162.5 -284t-263.5 -103q-160 0 -248 110.5t-88 288.5q0 101 23.5 200.5t68.5 186t105.5 153t139.5 104.5t166 38q110 0 177 -57t67 -158q0 -77 -38 -144t-100 -114.5t-145.5 -84.5t-170 -58t-177.5 -31q13 -141 87.5 -230.5t205.5 -89.5
q116 0 204 72.5t138 204.5zM510 1020q-127 -2 -226.5 -151t-99.5 -384v-32q138 14 249 60t180 126t69 180q0 95 -52.5 149t-119.5 52z" />
    <glyph glyph-name="uni0436" unicode="&#x436;" horiz-adv-x="1851" 
d="M1569 1065q112 0 174.5 -76.5t62.5 -200.5q0 -54 -23.5 -86t-70.5 -32q-33 0 -52.5 18.5t-19.5 48.5t30 66.5t30 70.5q0 77 -34.5 118.5t-96.5 41.5q-82 0 -151 -75t-109.5 -204t-40.5 -280q0 -167 56 -272t159 -105q83 0 153 66.5t107 197.5l12 -4q-45 -182 -135.5 -278
t-210.5 -96q-117 0 -184.5 103t-67.5 284q0 81 12 157h-170l-94 -528h-145l94 528h-172q-30 -231 -140.5 -387.5t-258.5 -156.5q-113 0 -175.5 75.5t-62.5 200.5q0 54 23.5 86.5t68.5 32.5q33 0 53.5 -19.5t20.5 -48.5q0 -31 -30.5 -68t-30.5 -69q0 -77 35.5 -118.5
t97.5 -41.5q82 0 151 75t109.5 204t40.5 280q0 108 -24.5 192.5t-74 134.5t-118.5 50q-81 0 -151 -67t-107 -197l-13 4q45 182 135.5 278.5t210.5 96.5q117 0 183.5 -103t66.5 -284q0 -41 -4 -111h174l86 477h144l-84 -477h168q40 214 147.5 356t245.5 142z" />
    <glyph glyph-name="uni0437" unicode="&#x437;" horiz-adv-x="919" 
d="M465 561q173 -9 253.5 -70t80.5 -172q0 -144 -135.5 -239.5t-337.5 -95.5q-148 0 -233 72t-85 182q0 54 23.5 86t70.5 32q33 0 52.5 -19.5t19.5 -49.5q0 -35 -29.5 -69t-29.5 -66q0 -60 58.5 -98t150.5 -38q124 0 201 76.5t77 204.5q0 218 -231 248q-92 -13 -170 -10
l4 32q220 3 330 70t110 178q0 78 -54.5 121t-144.5 43q-100 0 -185 -45t-130 -139l-10 2q54 129 168 198.5t258 69.5q133 0 204.5 -56.5t71.5 -154.5q0 -105 -96.5 -181.5t-261.5 -111.5z" />
    <glyph glyph-name="uni0438" unicode="&#x438;" horiz-adv-x="1212" 
d="M1184 354l12 -2q-19 -53 -35 -92t-46 -95.5t-60.5 -92t-75.5 -62t-94 -26.5q-75 0 -104 51.5t-15 138.5l51 291q-212 -481 -452 -481q-107 0 -159 74.5t-24 226.5l99 561q19 119 -56 119q-91 0 -192 -208q-3 -6 -4 -9l-11 2q18 44 34 78t45.5 81.5t60 78.5t74.5 54t92 23
q74 0 102.5 -50t13.5 -141l-102 -577q-20 -114 15 -167.5t100 -53.5q43 0 87.5 28t82.5 71.5t77 108t69 124.5t62 133l89 503h153l-149 -849q-10 -59 1.5 -85t45.5 -26q36 0 72.5 30.5t64.5 78t46 87t30 74.5z" />
    <glyph glyph-name="uni0439" unicode="&#x439;" horiz-adv-x="1212" 
d="M659 1257q-123 0 -198.5 59t-75.5 159q0 61 25.5 104t78.5 43q32 0 54 -19.5t22 -50.5q0 -33 -15.5 -54t-30.5 -38.5t-15 -42.5q0 -54 48 -83t136 -29q129 0 226.5 71.5t138.5 212.5l6 -2q-39 -157 -145 -243.5t-255 -86.5zM1184 354l12 -2q-19 -53 -35 -92t-46 -95.5
t-60.5 -92t-75.5 -62t-94 -26.5q-75 0 -104 51.5t-15 138.5l51 291q-212 -481 -452 -481q-107 0 -159 74.5t-24 226.5l99 561q19 119 -56 119q-91 0 -192 -208q-3 -6 -4 -9l-11 2q18 44 34 78t45.5 81.5t60 78.5t74.5 54t92 23q74 0 102.5 -50t13.5 -141l-102 -577
q-20 -114 15 -167.5t100 -53.5q43 0 87.5 28t82.5 71.5t77 108t69 124.5t62 133l89 503h153l-149 -849q-10 -59 1.5 -85t45.5 -26q36 0 72.5 30.5t64.5 78t46 87t30 74.5z" />
    <glyph glyph-name="uni043A" unicode="&#x43a;" horiz-adv-x="1216" 
d="M1194 354l12 -2q-15 -42 -27 -72t-34.5 -78t-46.5 -82t-54.5 -67.5t-68.5 -51t-80 -17.5q-67 0 -107 34t-69 99l-221 465l-119 -93l-88 -489h-154l152 852q18 113 -58 113q-94 0 -196 -217l-10 2q16 38 28 63.5t34 67t45 70t53 57t67 43t78 14.5q74 0 102.5 -50
t13.5 -141l-59 -337l404 325q55 43 73.5 69.5t18.5 53.5q0 34 -86 49v10h362v-10q-59 -14 -139 -57t-156 -105l-243 -190l243 -498q26 -55 52.5 -77.5t64.5 -22.5q36 0 73 31.5t65 80t46 87t29 71.5z" />
    <glyph glyph-name="uni043B" unicode="&#x43b;" horiz-adv-x="1046" 
d="M1026 354l10 -2q-14 -40 -26.5 -71.5t-33.5 -78.5t-45.5 -81.5t-54.5 -68t-68 -51t-79 -17.5q-75 0 -104 51.5t-15 138.5l154 838h-236q-54 0 -87.5 -27.5t-41.5 -73.5q-85 -449 -183.5 -687t-225.5 -238q-33 0 -51.5 17.5t-18.5 49.5q0 66 88 84q65 13 117.5 72.5
t94 168t72 229.5t64.5 298q11 64 -11 95.5t-99 35.5v8h676l-158 -851q-11 -55 0.5 -82t48.5 -27q36 0 73 31.5t65 80t46 87t29 71.5z" />
    <glyph glyph-name="uni043C" unicode="&#x43c;" horiz-adv-x="1458" 
d="M1450 354l10 -2q-14 -40 -26.5 -71.5t-33.5 -78.5t-45.5 -81.5t-54.5 -68t-68 -51t-79 -17.5q-140 0 -119 190l92 762l-522 -909h-41l-194 872q-92 -457 -189 -685t-219 -228q-33 0 -51.5 17.5t-18.5 49.5q0 66 86 84q122 25 200.5 214.5t154.5 572.5q10 59 -5.5 81.5
t-68.5 30.5l2 8h234l186 -808l463 808h233l-2 -8q-44 -10 -67 -29.5t-33 -64.5l-86 -749q-6 -58 4.5 -83.5t46.5 -25.5t72 31.5t64 80t46 87t29 71.5z" />
    <glyph glyph-name="uni043D" unicode="&#x43d;" horiz-adv-x="1212" 
d="M1192 354l10 -2q-17 -49 -32 -87.5t-45 -95t-61 -93.5t-77 -64.5t-96 -27.5q-75 0 -104 51.5t-15 138.5l64 354h-451l-94 -528h-154l152 852q18 113 -58 113q-94 0 -196 -217l-10 2q16 38 28 63.5t34 67t45 70t53 57t67 43t78 14.5q74 0 102.5 -50t13.5 -141l-55 -307
h451l86 477h153l-151 -851q-9 -56 1.5 -82.5t47.5 -26.5q36 0 73 31.5t65 80t46 87t29 71.5z" />
    <glyph glyph-name="uni043E" unicode="&#x43e;" horiz-adv-x="1060" 
d="M446 -16q-166 0 -269 114.5t-103 300.5q0 181 73 335t196.5 242.5t266.5 88.5q170 0 274.5 -116t104.5 -302q0 -137 -43.5 -260.5t-116.5 -211.5t-173 -139.5t-210 -51.5zM465 18q103 0 190 101t134 250t47 301q0 161 -60.5 259.5t-167.5 98.5q-80 0 -152.5 -58
t-121.5 -150.5t-78 -208.5t-29 -232q0 -161 63 -261t175 -100z" />
    <glyph glyph-name="uni043F" unicode="&#x43f;" horiz-adv-x="1212" 
d="M1192 354l10 -2q-17 -49 -32 -87.5t-45 -95t-61 -93.5t-77 -64.5t-96 -27.5q-75 0 -104 51.5t-15 138.5l102 580q20 113 -14 166t-100 53q-174 0 -379 -467l-90 -506h-154l152 852q18 113 -58 113q-94 0 -196 -217l-10 2q16 38 28 63.5t34 67t45 70t53 57t67 43t78 14.5
q74 0 102.5 -50t13.5 -141l-51 -290q212 481 453 481q107 0 158.5 -73.5t25.5 -225.5l-102 -573q-9 -56 1.5 -82.5t47.5 -26.5q36 0 73 31.5t65 80t46 87t29 71.5z" />
    <glyph glyph-name="uni0440" unicode="&#x440;" horiz-adv-x="1157" 
d="M829 1065q122 0 195.5 -87t73.5 -249q0 -149 -47.5 -287t-126 -238t-185 -160t-219.5 -60q-119 0 -215 90l-88 -492h-154l226 1270q18 113 -58 113q-94 0 -196 -217l-10 2q16 38 28 63.5t34 67t45 70t53 57t67 43t78 14.5q73 0 102 -51.5t14 -143.5l-49 -276
q176 471 432 471zM526 12q113 0 211.5 93t154.5 242t56 312q0 155 -51.5 232.5t-140.5 77.5q-110 0 -201.5 -119.5t-173.5 -345.5l-70 -395q50 -53 99 -75t116 -22z" />
    <glyph glyph-name="uni0441" unicode="&#x441;" horiz-adv-x="944" 
d="M432 -16q-167 0 -261.5 109.5t-94.5 301.5q0 177 63 330.5t176.5 246.5t251.5 93q150 0 235 -86.5t85 -226.5q0 -70 -25 -113t-78 -43q-33 0 -55 20.5t-22 53.5q0 35 31.5 76t31.5 83q0 96 -56 150.5t-159 54.5q-109 0 -194.5 -72.5t-131 -194t-45.5 -267.5
q0 -177 84.5 -289.5t237.5 -112.5q105 0 194 66.5t136 197.5l12 -4q-55 -182 -164 -278t-252 -96z" />
    <glyph glyph-name="uni0442" unicode="&#x442;" horiz-adv-x="1792" 
d="M1769 354l11 -2q-17 -49 -32.5 -87.5t-45 -94.5t-61 -93.5t-77.5 -65t-96 -27.5q-74 0 -103 51.5t-13 138.5l102 580q17 103 -13.5 161t-101.5 58q-52 0 -103.5 -40.5t-98.5 -113.5t-84 -147.5t-76 -169.5l-88 -502h-156l135 754q19 103 -11.5 161t-102.5 58
q-173 0 -373 -467l-90 -506h-154l152 852q18 113 -58 113q-94 0 -196 -217l-10 2q16 38 28 63.5t34 67t45 70t53 57t67 43t78 14.5q74 0 102.5 -50t13.5 -141l-51 -290q210 481 447 481q113 0 160 -78t22 -221l-33 -184q35 83 69 149.5t76.5 130.5t86 107t95.5 69.5
t107 26.5q114 0 162 -78t23 -221l-103 -573q-9 -56 1.5 -82.5t47.5 -26.5q36 0 73 31.5t65 80t46 87t29 71.5z" />
    <glyph glyph-name="uni0443" unicode="&#x443;" horiz-adv-x="1044" 
d="M940 1063q32 0 51 -20.5t19 -57.5q0 -152 -215 -569q-128 -255 -265 -430q-131 -167 -278.5 -266.5t-355.5 -141.5v125q362 37 571 260l-191 891q-13 68 -32 96.5t-49 28.5q-40 0 -81.5 -54t-80.5 -161h-13q41 146 107 223.5t149 77.5q30 0 53.5 -11.5t37.5 -27t26 -45.5
t18 -52.5t15 -62.5l156 -751q108 151 186 313q121 245 121 457q0 83 -35 135q28 43 86 43z" />
    <glyph glyph-name="uni0444" unicode="&#x444;" horiz-adv-x="1689" 
d="M1364 1065q113 0 189.5 -87.5t76.5 -252.5q0 -144 -45.5 -280t-122 -237.5t-182 -162.5t-219.5 -61q-128 0 -217 86l-86 -486l-148 -2l152 871q-29 -75 -57.5 -136t-69.5 -125.5t-84.5 -108t-100.5 -71.5t-120 -28q-115 0 -191 83t-76 248q0 193 77 366t209 278.5
t284 105.5q131 0 221 -90l49 278q5 39 3 73t-33.5 58.5t-92.5 28.5v10q167 26 314 84h6l-156 -876q37 93 76 165t90.5 136t116 98.5t137.5 34.5zM416 80q186 0 360 452l72 408q-87 96 -221 96q-115 0 -212.5 -98t-150.5 -247.5t-53 -307.5q0 -303 205 -303zM1067 12
q115 0 212.5 96t150.5 244t53 305q0 164 -56 238t-149 74q-181 0 -348 -422l-78 -443q83 -92 215 -92z" />
    <glyph glyph-name="uni0445" unicode="&#x445;" horiz-adv-x="1077" 
d="M774 1044h322l-2 -10q-120 -17 -230 -153l-254 -312l148 -360q28 -68 51 -93.5t57 -25.5q45 0 84 64.5t66 164.5l12 -2q-30 -134 -55 -191q-62 -142 -172 -142q-64 0 -102.5 38.5t-82.5 147.5l-127 311l-225 -288q-42 -51 -53.5 -87t7.5 -60.5t71 -35.5l-2 -10h-334l2 10
q67 13 122.5 49.5t112.5 104.5l285 350l-145 354q-19 47 -37 66.5t-43 19.5q-86 0 -146 -194l-12 2q12 48 20.5 79.5t28 78.5t40.5 74.5t55.5 49t76.5 21.5q54 0 88.5 -33.5t63.5 -107.5l135 -324l203 264q113 144 -31 170z" />
    <glyph glyph-name="uni0446" unicode="&#x446;" horiz-adv-x="1212" 
d="M1055 74q-35 -62 -35 -115q0 -29 15.5 -83t15.5 -83q0 -95 -85.5 -150.5t-236.5 -52.5v4q95 3 156 38t61 92q0 28 -14 77.5t-14 73.5q0 32 12 58.5t55 78.5q-48 -28 -100 -28q-75 0 -104 51.5t-15 138.5l51 291q-212 -481 -452 -481q-107 0 -159 74.5t-24 226.5l99 561
q19 119 -56 119q-91 0 -192 -208q-3 -6 -4 -9l-11 2q18 44 34 78t45.5 81.5t60 78.5t74.5 54t92 23q74 0 102.5 -50t13.5 -141l-102 -577q-20 -114 15 -167.5t100 -53.5q43 0 87.5 28t82.5 71.5t77 108t69 124.5t62 133l89 503h153l-149 -849q-10 -59 1.5 -85t45.5 -26
q36 0 72.5 30.5t64.5 78t46 87t30 74.5l12 -2q-68 -192 -141 -278z" />
    <glyph glyph-name="uni0447" unicode="&#x447;" horiz-adv-x="1212" 
d="M1184 354l12 -2q-19 -53 -35 -92t-46 -95.5t-60.5 -92t-75.5 -62t-94 -26.5q-75 0 -104 51.5t-15 138.5l98 555q-36 -81 -71.5 -147t-80 -129t-89.5 -106t-99 -69t-110 -26q-107 0 -159 75t-26 228l52 291q19 119 -56 119q-91 0 -192 -208q-3 -6 -4 -9l-11 2q18 44 34 78
t45.5 81.5t60 78.5t74.5 54t92 23q74 0 102.5 -50t13.5 -141l-53 -309q-20 -114 14.5 -167.5t100.5 -53.5q173 0 377 461l41 239h153l-149 -849q-10 -59 1.5 -85t45.5 -26q36 0 72.5 30.5t64.5 78t46 87t30 74.5z" />
    <glyph glyph-name="uni0448" unicode="&#x448;" horiz-adv-x="1816" 
d="M1788 354l12 -2q-19 -53 -35 -92t-46 -95.5t-60.5 -92t-75.5 -62t-94 -26.5q-75 0 -104 51.5t-15 138.5l51 291q-212 -481 -452 -481q-107 0 -159 74.5t-24 226.5l31 178q-36 -81 -72 -147t-80.5 -129.5t-89.5 -107t-99.5 -69.5t-110.5 -26q-107 0 -159 74.5t-24 226.5
l99 561q19 119 -56 119q-91 0 -192 -208q-3 -6 -4 -9l-11 2q18 44 34 78t45.5 81.5t60 78.5t74.5 54t92 23q74 0 102.5 -50t13.5 -141l-102 -577q-20 -114 15 -167.5t100 -53.5q177 0 376 463l91 505h153l-131 -747q-20 -114 15 -167.5t100 -53.5q175 0 379 465l88 503h153
l-149 -849q-10 -59 1.5 -85t45.5 -26q36 0 72.5 30.5t64.5 78t46 87t30 74.5z" />
    <glyph glyph-name="uni0449" unicode="&#x449;" horiz-adv-x="1816" 
d="M1663 82q-39 -70 -39 -123q0 -29 15.5 -83t15.5 -83q0 -95 -85 -150.5t-235 -52.5v4q95 3 156 38t61 92q0 28 -15 77.5t-15 73.5q0 33 13.5 61.5t63.5 86.5q-51 -39 -110 -39q-75 0 -104 51.5t-15 138.5l51 291q-212 -481 -452 -481q-107 0 -159 74.5t-24 226.5l31 178
q-36 -81 -72 -147t-80.5 -129.5t-89.5 -107t-99.5 -69.5t-110.5 -26q-107 0 -159 74.5t-24 226.5l99 561q19 119 -56 119q-91 0 -192 -208q-3 -6 -4 -9l-11 2q18 44 34 78t45.5 81.5t60 78.5t74.5 54t92 23q74 0 102.5 -50t13.5 -141l-102 -577q-20 -114 15 -167.5
t100 -53.5q177 0 376 463l91 505h153l-131 -747q-20 -114 15 -167.5t100 -53.5q175 0 379 465l88 503h153l-149 -849q-10 -59 1.5 -85t45.5 -26q36 0 72.5 30.5t64.5 78t46 87t30 74.5l12 -2q-67 -185 -137 -270z" />
    <glyph glyph-name="uni044A" unicode="&#x44a;" horiz-adv-x="991" 
d="M604 702q63 0 119.5 -17.5t105 -54t77 -100t28.5 -147.5q0 -95 -39 -173.5t-101 -126.5t-135.5 -73.5t-146.5 -25.5q-190 0 -289.5 106t-99.5 277q0 316 350 594q-73 -37 -149 -37q-42 0 -95 17t-84 17q-64 0 -102 -39.5t-41 -107.5h-4q-1 123 49 186.5t137 63.5
q51 0 131 -33t119 -33q15 0 29.5 1.5t30.5 6t27 8t28.5 11t25 10.5t26 12t22.5 11l28 2q-262 -250 -334 -459q69 55 134.5 79.5t152.5 24.5zM520 4q121 0 189.5 88t68.5 277q0 149 -68.5 221t-172.5 72q-61 0 -113 -22.5t-115 -70.5q-30 -97 -30 -211q0 -152 70 -253
t171 -101z" />
    <glyph glyph-name="uni044B" unicode="&#x44b;" horiz-adv-x="1583" 
d="M682 702q62 0 116.5 -17.5t100 -54t72 -100t26.5 -147.5q0 -96 -38 -174t-98.5 -126t-132 -73.5t-144.5 -25.5q-192 0 -289.5 89t-95.5 255q0 43 10 108l72 416q10 53 -5 83t-51 30q-27 0 -55 -18.5t-47 -40t-41.5 -59t-30.5 -53.5t-22 -46l-11 2q122 315 306 315
q149 0 114 -195l-49 -270q68 52 137 77t156 25zM1554 354l13 -2q-125 -368 -312 -368q-75 0 -104 50.5t-14 139.5l161 870h154l-158 -851q-21 -109 47 -109q35 0 70 28.5t62.5 73t47.5 86.5t33 82zM586 4q121 0 189.5 88t68.5 277q0 149 -64 221t-166 72q-60 0 -113 -21.5
t-116 -65.5l-14 -83q-21 -122 -21 -193q0 -143 67.5 -219t168.5 -76z" />
    <glyph glyph-name="uni044C" unicode="&#x44c;" horiz-adv-x="1081" 
d="M684 702q63 0 118.5 -17.5t103 -54t75 -100t27.5 -147.5q0 -95 -39 -173.5t-101 -126.5t-134.5 -73.5t-145.5 -25.5q-226 0 -324 117.5t-59 334.5l76 416q10 53 -5 83t-51 30q-27 0 -55 -18.5t-47 -40t-41.5 -59t-30.5 -53.5t-22 -46l-11 2q122 315 306 315
q149 0 114 -195l-49 -268q70 52 138.5 76t156.5 24zM594 4q121 0 189.5 88t68.5 277q0 149 -65.5 221t-168.5 72q-112 0 -233 -87l-16 -83q-23 -134 -23 -193q0 -143 70.5 -219t177.5 -76z" />
    <glyph glyph-name="uni044D" unicode="&#x44d;" horiz-adv-x="983" 
d="M512 1065q182 0 290.5 -112.5t108.5 -297.5q0 -153 -47.5 -280.5t-129 -212.5t-189.5 -131.5t-230 -46.5q-173 0 -313 61l27 268h4q11 -82 23.5 -127t35.5 -82q71 -96 209 -96q80 0 148.5 31t117 81t86.5 118.5t60.5 138.5t34.5 145h-363l10 39h357q8 55 8 117
q0 159 -68.5 261.5t-199.5 102.5q-68 0 -135.5 -31.5t-110.5 -74.5q-28 -31 -45 -52t-41 -63.5t-45 -97.5h-4l73 289q185 53 328 53z" />
    <glyph glyph-name="uni044E" unicode="&#x44e;" horiz-adv-x="1650" 
d="M1200 1065q170 0 273.5 -115.5t103.5 -302.5q0 -137 -43 -260.5t-116 -211.5t-173.5 -139.5t-210.5 -51.5q-166 0 -268 114.5t-102 300.5q0 61 10 129h-289l-94 -528h-154l152 852q18 113 -58 113q-94 0 -196 -217l-10 2q16 38 28 63.5t34 67t45 70t53 57t67 43t78 14.5
q74 0 102.5 -50t13.5 -141l-55 -307h289q46 217 191.5 357.5t328.5 140.5zM1055 18q103 0 190 101t133.5 250t46.5 301q0 161 -60 259.5t-167 98.5t-196.5 -98.5t-137 -246.5t-47.5 -304q0 -161 62.5 -261t175.5 -100z" />
    <glyph glyph-name="uni044F" unicode="&#x44f;" horiz-adv-x="1064" 
d="M1042 354l13 -2q-125 -368 -312 -368q-76 0 -105 52t-13 142l57 303h-82q-82 0 -137 -33t-92 -110l-133 -227q-31 -72 -76 -111h-197l2 8q62 21 105 103l143 233q67 128 188 152q-114 20 -175.5 81.5t-61.5 153.5q0 146 116 229.5t312 83.5q166 -2 244.5 -68t52.5 -200
l-109 -583q-11 -51 -1 -80t48 -29q35 0 70 28.5t62.5 73t47.5 86.5t33 82zM575 520h113l49 260q19 109 -17 169.5t-130 60.5q-121 0 -192.5 -68t-71.5 -188q0 -111 64.5 -172.5t184.5 -61.5z" />
    <glyph glyph-name="uni0451" unicode="&#x451;" horiz-adv-x="907" 
d="M399 1276q-51 0 -85.5 34t-34.5 85q0 49 34.5 81.5t85.5 32.5q50 0 84.5 -32.5t34.5 -81.5q0 -51 -34.5 -85t-84.5 -34zM813 1509q48 0 83.5 -32.5t35.5 -81.5q0 -50 -35.5 -84.5t-83.5 -34.5q-51 0 -86 34t-35 85q0 49 35 81.5t86 32.5zM500 98q115 0 202.5 72.5
t137.5 204.5l10 -4q-53 -180 -162 -283.5t-264 -103.5q-158 0 -246 111t-88 288q0 126 37.5 249t102.5 219t160 155t202 59q111 0 177.5 -57t66.5 -158q0 -95 -56.5 -173.5t-150 -129.5t-200.5 -83t-222 -44q13 -142 87 -232t206 -90zM526 1020q-127 -2 -225 -151t-98 -384
v-32q214 23 354.5 120t140.5 246q0 95 -52.5 149t-119.5 52z" />
    <glyph glyph-name="Wgrave" unicode="&#x1e80;" horiz-adv-x="2033" 
d="M1421 1552l-4 -6l-491 191l-6 28l133 127zM1874 1442l2 10h354l-2 -10q-146 -24 -219 -174l-633 -1278h-45l-180 1204l-627 -1204h-45l-188 1315q-10 64 -38 97t-99 40l2 10h462l-2 -10q-90 -6 -126.5 -42.5t-26.5 -113.5l133 -1071l545 1049l-6 41q-10 65 -38 97.5
t-100 39.5l2 10h463l-2 -10q-89 -6 -125.5 -44.5t-27.5 -111.5l139 -1063l518 1043q12 24 17.5 41.5t6 39.5t-9.5 38t-36 31.5t-68 25.5z" />
    <glyph glyph-name="wgrave" unicode="&#x1e81;" horiz-adv-x="1556" 
d="M1036 1198l-6 -4l-434 342v31l192 53zM1448 1063q34 0 55 -22.5t21 -61.5q0 -74 -43 -195t-156 -335q-71 -139 -140.5 -242.5t-162.5 -220.5h-29l-112 716q-46 -143 -115 -284q-47 -92 -103.5 -178.5t-90 -130t-97.5 -123.5h-31l-168 858q-12 65 -30 93t-49 28
q-39 0 -82 -57.5t-78 -157.5h-10q85 315 252 315q32 0 57 -13t40 -31t27 -50t17.5 -55.5t13.5 -63.5l129 -715q101 130 176 293q58 136 80.5 233t22.5 195q0 51 -14 96.5t-35 69.5q14 16 46.5 27.5t69.5 11.5q34 0 51 -16t23 -54l125 -839q114 151 190 307q101 197 101 430
q0 79 -33 129q10 17 32.5 30t49.5 13z" />
    <glyph glyph-name="Wacute" unicode="&#x1e82;" horiz-adv-x="2033" 
d="M1507 1745l-491 -189l-6 5l368 340l135 -125zM1874 1442l2 10h354l-2 -10q-146 -24 -219 -174l-633 -1278h-45l-180 1204l-627 -1204h-45l-188 1315q-10 64 -38 97t-99 40l2 10h462l-2 -10q-90 -6 -126.5 -42.5t-26.5 -113.5l133 -1071l545 1049l-6 41q-10 65 -38 97.5
t-100 39.5l2 10h463l-2 -10q-89 -6 -125.5 -44.5t-27.5 -111.5l139 -1063l518 1043q12 24 17.5 41.5t6 39.5t-9.5 38t-36 31.5t-68 25.5z" />
    <glyph glyph-name="wacute" unicode="&#x1e83;" horiz-adv-x="1556" 
d="M1151 1536l-422 -342l-6 4l278 412l150 -43v-31zM1448 1063q34 0 55 -22.5t21 -61.5q0 -74 -43 -195t-156 -335q-71 -139 -140.5 -242.5t-162.5 -220.5h-29l-112 716q-46 -143 -115 -284q-47 -92 -103.5 -178.5t-90 -130t-97.5 -123.5h-31l-168 858q-12 65 -30 93t-49 28
q-39 0 -82 -57.5t-78 -157.5h-10q85 315 252 315q32 0 57 -13t40 -31t27 -50t17.5 -55.5t13.5 -63.5l129 -715q101 130 176 293q58 136 80.5 233t22.5 195q0 51 -14 96.5t-35 69.5q14 16 46.5 27.5t69.5 11.5q34 0 51 -16t23 -54l125 -839q114 151 190 307q101 197 101 430
q0 79 -33 129q10 17 32.5 30t49.5 13z" />
    <glyph glyph-name="Wdieresis" unicode="&#x1e84;" horiz-adv-x="2033" 
d="M1049 1614q-51 0 -86 34t-35 83t35 82.5t86 33.5q48 0 83 -33.5t35 -82.5t-35 -83t-83 -34zM1505 1614q-51 0 -86 34t-35 83t35 82.5t86 33.5q50 0 84.5 -33.5t34.5 -82.5t-34.5 -83t-84.5 -34zM1874 1442l2 10h354l-2 -10q-146 -24 -219 -174l-633 -1278h-45l-180 1204
l-627 -1204h-45l-188 1315q-10 64 -38 97t-99 40l2 10h462l-2 -10q-90 -6 -126.5 -42.5t-26.5 -113.5l133 -1071l545 1049l-6 41q-10 65 -38 97.5t-100 39.5l2 10h463l-2 -10q-89 -6 -125.5 -44.5t-27.5 -111.5l139 -1063l518 1043q12 24 17.5 41.5t6 39.5t-9.5 38t-36 31.5
t-68 25.5z" />
    <glyph glyph-name="wdieresis" unicode="&#x1e85;" horiz-adv-x="1556" 
d="M727 1276q-51 0 -86 34t-35 85q0 49 35 81.5t86 32.5q50 0 84.5 -32.5t34.5 -81.5q0 -51 -34.5 -85t-84.5 -34zM1141 1276q-51 0 -86 34t-35 85q0 49 35 81.5t86 32.5q48 0 83.5 -32.5t35.5 -81.5q0 -50 -35.5 -84.5t-83.5 -34.5zM1448 1063q34 0 55 -22.5t21 -61.5
q0 -74 -43 -195t-156 -335q-71 -139 -140.5 -242.5t-162.5 -220.5h-29l-112 716q-46 -143 -115 -284q-47 -92 -103.5 -178.5t-90 -130t-97.5 -123.5h-31l-168 858q-12 65 -30 93t-49 28q-39 0 -82 -57.5t-78 -157.5h-10q85 315 252 315q32 0 57 -13t40 -31t27 -50
t17.5 -55.5t13.5 -63.5l129 -715q101 130 176 293q58 136 80.5 233t22.5 195q0 51 -14 96.5t-35 69.5q14 16 46.5 27.5t69.5 11.5q34 0 51 -16t23 -54l125 -839q114 151 190 307q101 197 101 430q0 79 -33 129q10 17 32.5 30t49.5 13z" />
    <glyph glyph-name="uni1E9E" unicode="&#x1e9e;" horiz-adv-x="1411" 
d="M1364 1235l-479 -412q434 -69 434 -381q0 -194 -144.5 -325t-363.5 -131q-87 0 -149.5 14.5t-126.5 48.5l36 332h7q10 -115 18.5 -162.5t30.5 -83.5q68 -119 221 -119q135 0 223 98t88 271q0 71 -17.5 133t-55 117.5t-102.5 97.5t-153 64l3 30l485 414q-41 91 -137 143
t-224 52q-198 0 -329.5 -117.5t-173.5 -341.5l-162 -830q-12 -65 14 -99t96 -38l-2 -10h-446l2 10q78 4 119 37.5t55 99.5l150 771q51 266 224.5 409t438.5 143q161 0 267 -62t153 -173z" />
    <glyph glyph-name="Ygrave" unicode="&#x1ef2;" horiz-adv-x="1269" 
d="M1024 1552l-6 -6l-492 191l-6 28l135 127zM1106 1442l2 10h356l-2 -10q-128 -26 -239 -174l-484 -650l-92 -471q-27 -129 121 -137l-2 -10h-457l2 10q83 4 122 39t50 98l92 461l-260 697q-25 67 -53 96.5t-90 40.5l2 10h449l-2 -10q-44 -9 -72.5 -23.5t-41.5 -31
t-15.5 -39t1.5 -41.5t13 -45l221 -596l444 600q34 47 43 79.5t-16 59t-92 37.5z" />
    <glyph glyph-name="ygrave" unicode="&#x1ef3;" horiz-adv-x="1044" 
d="M788 1198l-6 -4l-434 342v31l193 53zM940 1063q32 0 51 -20.5t19 -57.5q0 -152 -215 -569q-128 -255 -265 -430q-131 -167 -278.5 -266.5t-355.5 -141.5v125q362 37 571 260l-191 891q-13 68 -32 96.5t-49 28.5q-40 0 -81.5 -54t-80.5 -161h-13q41 146 107 223.5
t149 77.5q30 0 53.5 -11.5t37.5 -27t26 -45.5t18 -52.5t15 -62.5l156 -751q108 151 186 313q121 245 121 457q0 83 -35 135q28 43 86 43z" />
    <glyph glyph-name="uni1EF8" unicode="&#x1ef8;" horiz-adv-x="1269" 
d="M553 1632l-4 2q6 109 57.5 170.5t124.5 61.5q51 0 103.5 -23t101.5 -46t92 -23q54 0 97 29t61 85l4 -2q-3 -111 -53.5 -172t-124.5 -61q-51 0 -101.5 23.5t-99 47t-96.5 23.5q-51 0 -96 -29.5t-66 -85.5zM1106 1442l2 10h356l-2 -10q-128 -26 -239 -174l-484 -650
l-92 -471q-27 -129 121 -137l-2 -10h-457l2 10q83 4 122 39t50 98l92 461l-260 697q-25 67 -53 96.5t-90 40.5l2 10h449l-2 -10q-44 -9 -72.5 -23.5t-41.5 -31t-15.5 -39t1.5 -41.5t13 -45l221 -596l444 600q34 47 43 79.5t-16 59t-92 37.5z" />
    <glyph glyph-name="uni1EF9" unicode="&#x1ef9;" horiz-adv-x="1044" 
d="M358 1276l-4 2q6 110 57.5 171.5t125.5 61.5q50 0 102.5 -23.5t102 -47t92.5 -23.5q54 0 96.5 29.5t60.5 85.5l4 -2q-3 -110 -53.5 -171t-124.5 -61q-41 0 -82 14.5t-69.5 32t-68 32t-77.5 14.5q-51 0 -96 -29.5t-66 -85.5zM940 1063q32 0 51 -20.5t19 -57.5
q0 -152 -215 -569q-128 -255 -265 -430q-131 -167 -278.5 -266.5t-355.5 -141.5v125q362 37 571 260l-191 891q-13 68 -32 96.5t-49 28.5q-40 0 -81.5 -54t-80.5 -161h-13q41 146 107 223.5t149 77.5q30 0 53.5 -11.5t37.5 -27t26 -45.5t18 -52.5t15 -62.5l156 -751
q108 151 186 313q121 245 121 457q0 83 -35 135q28 43 86 43z" />
    <glyph glyph-name="endash" unicode="&#x2013;" horiz-adv-x="1052" 
d="M977 518h-901l10 49h901z" />
    <glyph glyph-name="emdash" unicode="&#x2014;" horiz-adv-x="1871" 
d="M1796 518h-1720l10 49h1720z" />
    <glyph glyph-name="quoteleft" unicode="&#x2018;" horiz-adv-x="417" 
d="M498 1483l4 -23q-133 -44 -133 -129q0 -19 9.5 -35t21 -27t21 -30.5t9.5 -44.5q0 -46 -30 -78.5t-81 -32.5q-44 0 -71 28t-27 83q0 86 84 171t193 118z" />
    <glyph glyph-name="quoteright" unicode="&#x2019;" horiz-adv-x="423" 
d="M223 1079l-4 21q133 47 133 129q0 23 -15 42t-30.5 41.5t-15.5 53.5q0 47 30.5 79t81.5 32q42 0 70.5 -28t28.5 -81q0 -87 -84 -171.5t-195 -117.5z" />
    <glyph glyph-name="quotesinglbase" unicode="&#x201a;" horiz-adv-x="417" 
d="M-27 -195l-4 21q133 47 133 129q0 23 -15 42t-30.5 41.5t-15.5 53.5q0 47 30 79t81 32q43 0 70.5 -28t27.5 -81q0 -87 -84 -171.5t-193 -117.5z" />
    <glyph glyph-name="quotedblleft" unicode="&#x201c;" horiz-adv-x="694" 
d="M498 1483l4 -23q-133 -44 -133 -129q0 -19 9.5 -35t21 -27t21 -30.5t9.5 -44.5q0 -46 -30 -78.5t-81 -32.5q-44 0 -71 28t-27 83q0 86 84 171t193 118zM774 1483l6 -23q-133 -43 -133 -129q0 -23 15 -42t30 -41.5t15 -53.5q0 -46 -30 -78.5t-81 -32.5q-42 0 -70 28.5
t-28 82.5q0 86 83.5 171t192.5 118z" />
    <glyph glyph-name="quotedblright" unicode="&#x201d;" horiz-adv-x="700" 
d="M223 1079l-4 21q133 47 133 129q0 23 -15 42t-30.5 41.5t-15.5 53.5q0 47 30.5 79t81.5 32q42 0 70.5 -28t28.5 -81q0 -87 -84 -171.5t-195 -117.5zM502 1079l-6 21q133 46 133 129q0 23 -15 42t-30 41.5t-15 53.5q0 47 30 79t81 32q42 0 70 -28t28 -81
q0 -87 -83.5 -171.5t-192.5 -117.5z" />
    <glyph glyph-name="quotedblbase" unicode="&#x201e;" horiz-adv-x="694" 
d="M-27 -195l-4 21q133 47 133 129q0 23 -15 42t-30.5 41.5t-15.5 53.5q0 47 30 79t81 32q43 0 70.5 -28t27.5 -81q0 -87 -84 -171.5t-193 -117.5zM250 -195l-4 21q133 47 133 129q0 23 -15.5 42t-31 41.5t-15.5 53.5q0 48 30.5 79.5t82.5 31.5q42 0 69 -28t27 -81
q0 -87 -83.5 -171.5t-192.5 -117.5z" />
    <glyph glyph-name="dagger" unicode="&#x2020;" horiz-adv-x="784" 
d="M535 1137h286l-8 -45h-287l-149 -701h-45l149 701h-286l8 45h286l68 315h45z" />
    <glyph glyph-name="daggerdbl" unicode="&#x2021;" horiz-adv-x="847" 
d="M858 1149l-8 -45h-289l-78 -365h287l-8 -45h-289l-63 -303h-45l63 303h-285l9 45h286l78 365h-285l9 45h286l64 303h45l-64 -303h287z" />
    <glyph glyph-name="bullet" unicode="&#x2022;" horiz-adv-x="892" 
d="M426 299q-113 0 -179.5 68t-66.5 172q0 127 84.5 215t222.5 88q109 0 176.5 -67.5t67.5 -170.5q0 -133 -82.5 -219t-222.5 -86z" />
    <glyph glyph-name="ellipsis" unicode="&#x2026;" horiz-adv-x="1157" 
d="M156 -8q-47 0 -78 30t-31 76q0 53 36.5 90t92.5 37q49 0 80 -29t31 -75q0 -55 -36 -92t-95 -37zM508 -8q-47 0 -78 30t-31 76q0 53 36.5 90t92.5 37q49 0 80 -29t31 -75q0 -55 -36 -92t-95 -37zM860 -8q-47 0 -77.5 29t-30.5 75q0 55 35.5 91t93.5 36q49 0 78.5 -28.5
t29.5 -73.5q0 -57 -35 -93t-94 -36z" />
    <glyph glyph-name="perthousand" unicode="&#x2030;" horiz-adv-x="1822" 
d="M14 2l1327 1440l31 -25l-1327 -1440zM440 831q-111 0 -178 71.5t-67 182.5q0 144 91.5 245.5t233.5 101.5q111 0 178.5 -71.5t67.5 -180.5q0 -145 -89.5 -247t-236.5 -102zM512 1389q-118 0 -195 -86.5t-77 -208.5q0 -96 57.5 -156.5t151.5 -60.5q119 0 195.5 85
t76.5 207q0 97 -57 158.5t-152 61.5zM1473 586q111 0 178 -71.5t67 -182.5q0 -144 -89 -245t-236 -101q-89 0 -151.5 47.5t-84.5 128.5q-39 -80 -114.5 -128t-174.5 -48q-111 0 -177 71t-66 183q0 143 91.5 244.5t233.5 101.5q91 0 153 -48.5t83 -129.5q41 80 117 129
t170 49zM879 31q119 0 195.5 85t76.5 208q0 96 -57 156.5t-154 60.5q-117 0 -194.5 -86.5t-77.5 -208.5q0 -95 57.5 -155t153.5 -60zM1401 31q119 0 195.5 85t76.5 208q0 95 -57 156t-152 61q-118 0 -195 -86.5t-77 -208.5q0 -95 57 -155t152 -60z" />
    <glyph glyph-name="guilsinglleft" unicode="&#x2039;" horiz-adv-x="696" 
d="M633 983h29q-169 -243 -422 -448q156 -189 229 -457h-29q-64 130 -140 236t-181 200l8 33q298 202 506 436z" />
    <glyph glyph-name="guilsinglright" unicode="&#x203a;" horiz-adv-x="696" 
d="M70 78h-27q172 246 420 448q-158 192 -227 457h26q64 -130 140.5 -236t183.5 -200l-8 -33q-291 -195 -508 -436z" />
    <glyph glyph-name="fraction" unicode="&#x2044;" horiz-adv-x="409" 
d="M694 1378l-866 -1302l-25 16l865 1303z" />
    <glyph glyph-name="Euro" unicode="&#x20ac;" horiz-adv-x="1470" 
d="M1118 1466q193 0 336 -82l-45 -362h-4q-5 122 -20 185.5t-52 109.5q-88 108 -260 108q-204 0 -368.5 -136.5t-235.5 -370.5h508l-8 -37h-510q-32 -126 -35 -250h430l-8 -37h-422q2 -227 109.5 -359.5t300.5 -132.5q169 0 300 91t203 251l6 -2q-83 -216 -237 -336
t-363 -120q-218 0 -338 137t-120 377q0 32 4 94h-191l8 37h187q12 128 57 250h-129l8 37h136q101 251 306 399.5t447 148.5z" />
    <glyph glyph-name="uni20BD" unicode="&#x20bd;" horiz-adv-x="1187" 
d="M549 680h-119l-49 -256h399l-8 -31h-397l-43 -219q-17 -87 11 -122t128 -42l-2 -10h-479l2 10q150 8 174 137l47 246h-188l8 31h186l49 256h-180l6 31h180l115 594q14 65 -13.5 99t-105.5 38l2 10h539q212 0 315 -87t103 -237q0 -214 -181.5 -331t-498.5 -117zM551 1298
l-115 -587h94q253 0 390 106t137 295q0 139 -68 221t-198 82h-103q-116 0 -137 -117z" />
    <glyph glyph-name="trademark" unicode="&#x2122;" horiz-adv-x="1703" 
d="M537 618h-269l2 9q76 6 95 92l114 543q7 29 3 43t-25 14h-49q-26 0 -55.5 -16t-51.5 -39q-51 -53 -94 -154h-6l61 236h586l-37 -236h-6q-3 98 -31 154q-29 55 -82 55h-47q-21 0 -33 -13.5t-18 -43.5l-115 -543q-10 -44 3 -66.5t57 -25.5zM909 618h-188l2 9q54 12 74 34
t32 66l146 516q11 48 -1 68.5t-46 27.5l2 7h168l106 -553l330 553h166l-2 -7q-28 -11 -46 -29.5t-28 -58.5l-74 -534q-7 -85 60 -90l-2 -9h-269l2 9q40 4 65 29t30 63l75 530l-364 -616h-33l-117 596l-141 -502q-25 -88 55 -100z" />
    <glyph glyph-name="minus" unicode="&#x2212;" horiz-adv-x="960" 
d="M874 530h-786l10 43h787z" />
    <glyph glyph-name="approxequal" unicode="&#x2248;" horiz-adv-x="1079" 
d="M215 641h-43q21 99 85.5 153t152.5 54q53 0 104 -20t86 -44.5t84.5 -44.5t99.5 -20q69 0 118 40.5t67 121.5h43q-21 -99 -85.5 -153t-152.5 -54q-53 0 -104 20t-85.5 44.5t-83.5 44.5t-100 20q-71 0 -120 -40.5t-66 -121.5zM127 229h-43q21 99 86 153t152 54
q53 0 104.5 -20t86.5 -44.5t85 -44.5t100 -20q68 0 116.5 40.5t66.5 121.5h43q-21 -99 -85 -153t-153 -54q-53 0 -104 20t-85.5 44.5t-83.5 44.5t-100 20q-150 0 -186 -162z" />
    <glyph glyph-name="notequal" unicode="&#x2260;" horiz-adv-x="1075" 
d="M985 778l-8 -43h-340l-141 -366h401l-8 -43h-410l-114 -293l-41 8l110 285h-332l9 43h340l143 366h-404l9 43h413l113 291l39 -8l-111 -283h332z" />
    <glyph glyph-name="uniF8FF" unicode="&#xf8ff;" horiz-adv-x="4804" 
d="M1249 408q-95 0 -136.5 40t-41.5 130v466h203q0 -62 -39.5 -122t-97.5 -86l2 -9q57 35 118 35h105v-162h-86v-98q0 -35 37 -35q27 0 49 15v-154q-36 -20 -113 -20zM1606 418h-203v626h201q0 -67 -47 -122t-115 -70l4 -6q84 16 143 16h17v-444zM2908 408
q-95 0 -137.5 40.5t-42.5 129.5v466h203q0 -62 -39.5 -122t-98.5 -86l5 -9q57 35 118 35h103v-162h-86v-98q0 -35 37 -35q26 0 49 15v-154q-36 -20 -111 -20zM508 418h-203v624h203v-624zM684 408q-66 0 -104.5 34t-38.5 90q0 60 40.5 98t110.5 38q92 0 135 -43h4v71
q0 24 -12 38t-35 14q-47 0 -47 -60l-184 29q37 160 250 160q109 0 171 -50t62 -135v-274h-200v45h-7q-14 -20 -51.5 -37.5t-93.5 -17.5zM1851 418h-202v444h198v-133h6q17 143 146 143q70 0 109.5 -46t39.5 -134v-274h-204v264q0 55 -39 55q-22 0 -32.5 -13.5t-21.5 -51.5
v-254zM2437 408q-123 0 -190.5 63.5t-67.5 167.5t69 168.5t189 64.5q122 0 190 -64.5t68 -168.5q0 -103 -67.5 -167t-190.5 -64zM3768 270h-204v592h202v-133h6q21 143 150 143q170 0 170 -233q0 -115 -51 -173t-125 -58q-106 0 -142 88h-6v-226zM4375 408q-120 0 -187 63.5
t-67 167.5q0 103 70 168t190 65q106 0 172.5 -64.5t66.5 -158.5v-18h-307q0 -39 19 -66.5t51 -27.5q54 0 61 69l168 -16q-18 -95 -82.5 -138.5t-154.5 -43.5zM3195 262h-80v135h133q115 0 137 25l-2 6h-139q-82 0 -106 80l-111 354h205q6 -36 20 -110t23.5 -134.5
t13.5 -109.5h4q12 115 62 354h202l-145 -424q-63 -176 -217 -176zM4313 655h12q62 0 87.5 12t25.5 38q0 45 -49 45q-34 0 -55 -26t-21 -69zM3838 506q31 0 46 27.5t15 89.5q0 66 -12 95.5t-43 29.5q-45 0 -61 -68v-148q21 -26 55 -26zM2437 535q60 0 60 104q0 106 -60 106
q-57 0 -57 -106q0 -104 57 -104zM786 469q30 0 45 23v104q-10 16 -38 16q-25 0 -40.5 -19t-15.5 -52q0 -72 49 -72z" />
    <glyph glyph-name="uni004A0301" horiz-adv-x="837" 
d="M1024 1745l-492 -189l-4 5l369 340l133 -125zM197 -14q-154 0 -230 61l43 334h2q6 -110 18.5 -169.5t35.5 -105.5q44 -86 143 -86q80 0 131.5 58t71.5 153l206 1074q12 64 -15 98.5t-103 38.5l2 10h456l-2 -10q-78 -6 -120 -39.5t-54 -97.5l-184 -940q-36 -191 -145 -285
t-256 -94z" />
    <glyph glyph-name="Q.ss01" horiz-adv-x="1611" 
d="M831 -10q52 -7 98 -28t80 -48.5t66.5 -60t64.5 -63t66 -55.5t78.5 -40t95.5 -14l-2 -11q-68 -10 -125 -10t-99 8.5t-78 26.5t-61.5 39.5t-49.5 50.5q-20 25 -49.5 69.5t-47 66.5t-50.5 42t-75 21h-6q-131 0 -244.5 46t-193.5 126.5t-126 193.5t-46 242q0 175 63.5 336.5
t173 282t265 192.5t329.5 72t313.5 -79t218.5 -218t79 -312q0 -219 -93.5 -410t-263 -316.5t-381.5 -149.5zM301 569q0 -245 118 -397t324 -152q184 0 335 121t234 319.5t83 428.5q0 244 -119 396.5t-326 152.5q-181 0 -331 -121t-234 -320t-84 -428z" />
    <glyph glyph-name="R.ss01" horiz-adv-x="1290" 
d="M834 666l204 -512q23 -64 54 -96t96 -48l-2 -10h-408l2 10q54 10 78 28t23 45t-13 64l-196 496q-27 -2 -78 -2h-172l-90 -467q-8 -48 -7 -82.5t31 -55.5t95 -26l-2 -10h-459l2 10q78 6 120 39t54 98l223 1158q12 65 -15.5 99t-103.5 38l2 10h553q216 0 328.5 -88.5
t112.5 -245.5q0 -176 -117 -292t-315 -160zM553 1311l-123 -629h174q221 0 355.5 117.5t134.5 316.5q0 140 -76 219.5t-227 79.5h-105q-65 0 -94 -26t-39 -78z" />
    <glyph glyph-name="Racute.ss01" horiz-adv-x="1290" 
d="M1112 1776l-6 -31l-492 -189l-4 5l369 340zM834 666l204 -512q23 -64 54 -96t96 -48l-2 -10h-408l2 10q54 10 78 28t23 45t-13 64l-196 496q-27 -2 -78 -2h-172l-90 -467q-8 -48 -7 -82.5t31 -55.5t95 -26l-2 -10h-459l2 10q78 6 120 39t54 98l223 1158q12 65 -15.5 99
t-103.5 38l2 10h553q216 0 328.5 -88.5t112.5 -245.5q0 -176 -117 -292t-315 -160zM553 1311l-123 -629h174q221 0 355.5 117.5t134.5 316.5q0 140 -76 219.5t-227 79.5h-105q-65 0 -94 -26t-39 -78z" />
    <glyph glyph-name="Rcaron.ss01" horiz-adv-x="1290" 
d="M1214 1946l-374 -381h-19l-258 381l6 4l287 -201l352 201zM834 666l204 -512q23 -64 54 -96t96 -48l-2 -10h-408l2 10q54 10 78 28t23 45t-13 64l-196 496q-27 -2 -78 -2h-172l-90 -467q-8 -48 -7 -82.5t31 -55.5t95 -26l-2 -10h-459l2 10q78 6 120 39t54 98l223 1158
q12 65 -15.5 99t-103.5 38l2 10h553q216 0 328.5 -88.5t112.5 -245.5q0 -176 -117 -292t-315 -160zM553 1311l-123 -629h174q221 0 355.5 117.5t134.5 316.5q0 140 -76 219.5t-227 79.5h-105q-65 0 -94 -26t-39 -78z" />
    <glyph glyph-name="uni0156.ss01" horiz-adv-x="1290" 
d="M834 666l204 -512q23 -64 54 -96t96 -48l-2 -10h-408l2 10q54 10 78 28t23 45t-13 64l-196 496q-27 -2 -78 -2h-172l-90 -467q-8 -48 -7 -82.5t31 -55.5t95 -26l-2 -10h-459l2 10q78 6 120 39t54 98l223 1158q12 65 -15.5 99t-103.5 38l2 10h553q216 0 328.5 -88.5
t112.5 -245.5q0 -176 -117 -292t-315 -160zM553 1311l-123 -629h174q221 0 355.5 117.5t134.5 316.5q0 140 -76 219.5t-227 79.5h-105q-65 0 -94 -26t-39 -78zM608 -94q48 0 72.5 -29t24.5 -78q0 -93 -68.5 -156t-171.5 -79l-4 24q119 22 119 88q0 22 -17 42t-34 43t-17 53
q0 43 26 67.5t70 24.5z" />
    <glyph glyph-name="i.loclTRK" horiz-adv-x="608" 
d="M397 1276q-51 0 -86 34t-35 85q0 49 35 81.5t86 32.5q48 0 83.5 -32.5t35.5 -81.5q0 -50 -35.5 -84.5t-83.5 -34.5zM285 -16q-74 0 -103.5 50.5t-15.5 139.5l121 678q19 113 -58 113q-55 0 -107.5 -67t-88.5 -150l-10 2q126 315 305 315q73 0 103 -49.5t13 -141.5
l-120 -677q-9 -57 2 -85t47 -28q44 0 90.5 51t74 106.5t48.5 112.5l10 -2q-120 -368 -311 -368z" />
    <glyph glyph-name="uni006A0301" horiz-adv-x="530" 
d="M678 1536l-422 -342l-4 4l278 412l148 -43v-31zM-78 -434q-81 0 -129.5 49.5t-48.5 122.5q0 68 37 113t90 45q28 0 42.5 -17.5t14.5 -42.5t-12 -40t-29 -22.5t-34 -15.5t-29 -25t-12 -44q0 -44 28.5 -69.5t79.5 -25.5q148 0 189 222l188 1036q20 113 -57 113
q-56 0 -108.5 -67t-88.5 -150l-10 2q19 48 37.5 87t47.5 83.5t59.5 74.5t72.5 50t88 20q73 0 102.5 -49t10.5 -142l-175 -956q-17 -91 -52.5 -160t-83 -110t-102.5 -61.5t-116 -20.5z" />
    <glyph glyph-name="dotlessi.ss01" horiz-adv-x="585" 
d="M227 -16q-146 0 -114 190l106 621q5 40 7 74.5t-22.5 58t-80.5 26.5v11l289 86h10l-154 -861q-8 -54 1.5 -80t45.5 -26q99 0 199 235l10 -2q-13 -35 -24.5 -61t-32.5 -69.5t-44.5 -75t-53 -63t-66 -48t-76.5 -16.5z" />
    <glyph glyph-name="k.ss01" horiz-adv-x="1046" 
d="M717 1044h364v-10q-58 -14 -138 -57t-159 -105l-258 -200l265 -496q49 -96 95 -128t109 -30l-2 -8q-49 -24 -129 -24q-156 0 -221 135l-237 450l-107 -84l-88 -487h-152l220 1249q13 80 -10.5 119t-112.5 45v10q172 27 317 84h6l-172 -970l406 325q54 43 72 69.5t18 53.5
q0 35 -86 49v10z" />
    <glyph glyph-name="uni0137.ss01" horiz-adv-x="1046" 
d="M717 1044h364v-10q-58 -14 -138 -57t-159 -105l-258 -200l265 -496q49 -96 95 -128t109 -30l-2 -8q-49 -24 -129 -24q-156 0 -221 135l-237 450l-107 -84l-88 -487h-152l220 1249q13 80 -10.5 119t-112.5 45v10q172 27 317 84h6l-172 -970l406 325q54 43 72 69.5t18 53.5
q0 35 -86 49v10zM303 -436l-4 24q119 22 119 88q0 22 -17 42t-34 43t-17 53q0 43 26 67.5t70 24.5q48 0 72.5 -29t24.5 -78q0 -93 -68.5 -156t-171.5 -79z" />
    <glyph glyph-name="kgreenlandic.ss01" horiz-adv-x="1069" 
d="M741 1044h363v-10q-59 -14 -139 -57t-156 -105l-258 -200l262 -496q49 -96 95.5 -128t109.5 -30v-8q-52 -24 -129 -24q-76 0 -131 31t-92 104l-238 450l-106 -82l-86 -489h-154l139 795q5 28 7 46.5t-1 41t-13.5 36t-33.5 23.5t-57 12l2 11l289 86h8l-90 -514l403 325
q54 43 72 69.5t18 53.5q0 35 -84 49v10z" />
    <glyph glyph-name="m.ss01" horiz-adv-x="1726" 
d="M1696 319l12 -2q-18 -46 -35 -83.5t-46 -87t-59 -82.5t-71.5 -56.5t-85.5 -23.5q-74 0 -103 50.5t-14 139.5l103 580q19 103 -12 161t-103 58q-42 0 -84.5 -28.5t-78 -72t-73 -109t-65.5 -126t-59 -135.5l-91 -502h-153l133 754q19 102 -11.5 160.5t-101.5 58.5
q-52 0 -104.5 -40t-101 -112.5t-87 -145.5t-79.5 -167l-90 -508h-154l139 795q5 28 7 46.5t-1 41t-13.5 36t-33.5 23.5t-57 12l2 11l289 86h8l-82 -465q211 479 446 479q112 0 160 -78t23 -221l-33 -184q200 483 434 483q114 0 161 -78t21 -221l-100 -573q-11 -54 -1 -81.5
t46 -27.5q40 0 84.5 47t69.5 94t45 94z" />
    <glyph glyph-name="n.ss01" horiz-adv-x="1148" 
d="M1118 319l12 -2q-13 -33 -21 -51t-27 -58.5t-34.5 -65.5t-41 -58.5t-49.5 -52.5t-56.5 -33t-66.5 -14q-76 0 -103.5 51t-13.5 139l102 580q20 113 -15 166t-99 53q-175 0 -379 -465l-90 -508h-154l139 795q5 28 7 46.5t-1 41t-13.5 36t-33.5 23.5t-57 12l2 11l289 86h8
l-82 -465q211 479 451 479q107 0 159.5 -73.5t24.5 -225.5l-101 -573q-11 -54 -1 -81.5t47 -27.5q33 0 67 28t62 74t42 74t27 59z" />
    <glyph glyph-name="nacute.ss01" horiz-adv-x="1148" 
d="M915 1536l-421 -342l-7 4l279 412l149 -43v-31zM1118 319l12 -2q-13 -33 -21 -51t-27 -58.5t-34.5 -65.5t-41 -58.5t-49.5 -52.5t-56.5 -33t-66.5 -14q-76 0 -103.5 51t-13.5 139l102 580q20 113 -15 166t-99 53q-175 0 -379 -465l-90 -508h-154l139 795q5 28 7 46.5
t-1 41t-13.5 36t-33.5 23.5t-57 12l2 11l289 86h8l-82 -465q211 479 451 479q107 0 159.5 -73.5t24.5 -225.5l-101 -573q-11 -54 -1 -81.5t47 -27.5q33 0 67 28t62 74t42 74t27 59z" />
    <glyph glyph-name="ncaron.ss01" horiz-adv-x="1148" 
d="M991 1593l-366 -401h-17l-276 401l6 4l305 -225l344 225zM1118 319l12 -2q-13 -33 -21 -51t-27 -58.5t-34.5 -65.5t-41 -58.5t-49.5 -52.5t-56.5 -33t-66.5 -14q-76 0 -103.5 51t-13.5 139l102 580q20 113 -15 166t-99 53q-175 0 -379 -465l-90 -508h-154l139 795
q5 28 7 46.5t-1 41t-13.5 36t-33.5 23.5t-57 12l2 11l289 86h8l-82 -465q211 479 451 479q107 0 159.5 -73.5t24.5 -225.5l-101 -573q-11 -54 -1 -81.5t47 -27.5q33 0 67 28t62 74t42 74t27 59z" />
    <glyph glyph-name="uni0146.ss01" horiz-adv-x="1148" 
d="M1118 319l12 -2q-13 -33 -21 -51t-27 -58.5t-34.5 -65.5t-41 -58.5t-49.5 -52.5t-56.5 -33t-66.5 -14q-76 0 -103.5 51t-13.5 139l102 580q20 113 -15 166t-99 53q-175 0 -379 -465l-90 -508h-154l139 795q5 28 7 46.5t-1 41t-13.5 36t-33.5 23.5t-57 12l2 11l289 86h8
l-82 -465q211 479 451 479q107 0 159.5 -73.5t24.5 -225.5l-101 -573q-11 -54 -1 -81.5t47 -27.5q33 0 67 28t62 74t42 74t27 59zM336 -436l-4 24q119 21 119 88q0 22 -17 42t-34 43t-17 53q0 43 27 67.5t71 24.5q46 0 71.5 -29.5t25.5 -77.5q0 -93 -69 -156t-173 -79z" />
    <glyph glyph-name="eng.ss01" horiz-adv-x="1075" 
d="M793 1063q88 0 140 -50.5t52 -154.5q0 -47 -8 -94l-158 -883q-29 -163 -123.5 -240t-216.5 -77q-88 0 -136 45.5t-48 118.5q0 69 38 116t89 47q26 0 39.5 -15t13.5 -36q0 -30 -18.5 -50t-40 -29.5t-40 -30.5t-18.5 -52q0 -40 28.5 -63t80.5 -23q147 0 188 232l164 928
q8 39 8 73q0 74 -35 110t-87 36q-174 0 -379 -467l-90 -504h-154l139 795q5 28 7 46.5t-1 41t-13.5 36t-33.5 23.5t-57 12l2 11l289 86h8l-82 -469q212 481 453 481z" />
    <glyph glyph-name="ntilde.ss01" horiz-adv-x="1148" 
d="M358 1276l-4 2q4 109 56 171t125 62q51 0 103 -23.5t101 -47t92 -23.5q54 0 97.5 29.5t62.5 85.5l4 -2q-4 -110 -54.5 -171t-125.5 -61q-41 0 -82 14.5t-69.5 32t-67 32t-76.5 14.5q-52 0 -96.5 -29.5t-65.5 -85.5zM1118 319l12 -2q-13 -33 -21 -51t-27 -58.5
t-34.5 -65.5t-41 -58.5t-49.5 -52.5t-56.5 -33t-66.5 -14q-76 0 -103.5 51t-13.5 139l102 580q20 113 -15 166t-99 53q-175 0 -379 -465l-90 -508h-154l139 795q5 28 7 46.5t-1 41t-13.5 36t-33.5 23.5t-57 12l2 11l289 86h8l-82 -465q211 479 451 479q107 0 159.5 -73.5
t24.5 -225.5l-101 -573q-11 -54 -1 -81.5t47 -27.5q33 0 67 28t62 74t42 74t27 59z" />
    <glyph glyph-name="o.ss01" horiz-adv-x="1056" 
d="M463 -20q-179 0 -282 119t-103 313q0 184 70 335t190 236.5t264 85.5q175 0 277 -120t102 -316q0 -133 -37.5 -252t-104.5 -208t-164.5 -141t-211.5 -52zM545 150q119 0 209 73t135 189t45 254q0 163 -85 265.5t-222 102.5q-90 0 -165.5 -44t-125 -117t-76.5 -165.5
t-27 -191.5q0 -166 82 -266t230 -100z" />
    <glyph glyph-name="oacute.ss01" horiz-adv-x="1056" 
d="M891 1536l-422 -342l-6 4l280 412l148 -43v-31zM463 -20q-179 0 -282 119t-103 313q0 184 70 335t190 236.5t264 85.5q175 0 277 -120t102 -316q0 -133 -37.5 -252t-104.5 -208t-164.5 -141t-211.5 -52zM545 150q119 0 209 73t135 189t45 254q0 163 -85 265.5t-222 102.5
q-90 0 -165.5 -44t-125 -117t-76.5 -165.5t-27 -191.5q0 -166 82 -266t230 -100z" />
    <glyph glyph-name="ocircumflex.ss01" horiz-adv-x="1056" 
d="M698 1597h17l276 -401l-6 -4l-305 225l-344 -225l-4 4zM602 1069q175 0 277 -120t102 -316q0 -133 -37.5 -252t-104.5 -208t-164.5 -141t-211.5 -52q-179 0 -282 119t-103 313q0 184 70 335t190 236.5t264 85.5zM545 150q119 0 209 73t135 189t45 254q0 163 -85 265.5
t-222 102.5q-90 0 -165.5 -44t-125 -117t-76.5 -165.5t-27 -191.5q0 -166 82 -266t230 -100z" />
    <glyph glyph-name="odieresis.ss01" horiz-adv-x="1056" 
d="M467 1276q-51 0 -86 34t-35 85q0 49 35 81.5t86 32.5q50 0 84.5 -32.5t34.5 -81.5q0 -51 -34.5 -85t-84.5 -34zM881 1276q-51 0 -86 34t-35 85q0 49 35 81.5t86 32.5q50 0 84 -32.5t34 -81.5q0 -51 -34 -85t-84 -34zM463 -20q-179 0 -282 119t-103 313q0 184 70 335
t190 236.5t264 85.5q175 0 277 -120t102 -316q0 -133 -37.5 -252t-104.5 -208t-164.5 -141t-211.5 -52zM545 150q119 0 209 73t135 189t45 254q0 163 -85 265.5t-222 102.5q-90 0 -165.5 -44t-125 -117t-76.5 -165.5t-27 -191.5q0 -166 82 -266t230 -100z" />
    <glyph glyph-name="ograve.ss01" horiz-adv-x="1056" 
d="M776 1198l-6 -4l-434 342v31l192 53zM463 -20q-179 0 -282 119t-103 313q0 184 70 335t190 236.5t264 85.5q175 0 277 -120t102 -316q0 -133 -37.5 -252t-104.5 -208t-164.5 -141t-211.5 -52zM545 150q119 0 209 73t135 189t45 254q0 163 -85 265.5t-222 102.5
q-90 0 -165.5 -44t-125 -117t-76.5 -165.5t-27 -191.5q0 -166 82 -266t230 -100z" />
    <glyph glyph-name="ohungarumlaut.ss01" horiz-adv-x="1056" 
d="M621 1536l-289 -346l-6 2l114 428l181 -53v-31zM1004 1536l-287 -346l-6 2l112 428l181 -53v-31zM463 -20q-179 0 -282 119t-103 313q0 184 70 335t190 236.5t264 85.5q175 0 277 -120t102 -316q0 -133 -37.5 -252t-104.5 -208t-164.5 -141t-211.5 -52zM545 150
q119 0 209 73t135 189t45 254q0 163 -85 265.5t-222 102.5q-90 0 -165.5 -44t-125 -117t-76.5 -165.5t-27 -191.5q0 -166 82 -266t230 -100z" />
    <glyph glyph-name="omacron.ss01" horiz-adv-x="1056" 
d="M950 1352h-542l8 43h542zM463 -20q-179 0 -282 119t-103 313q0 184 70 335t190 236.5t264 85.5q175 0 277 -120t102 -316q0 -133 -37.5 -252t-104.5 -208t-164.5 -141t-211.5 -52zM545 150q119 0 209 73t135 189t45 254q0 163 -85 265.5t-222 102.5q-90 0 -165.5 -44
t-125 -117t-76.5 -165.5t-27 -191.5q0 -166 82 -266t230 -100z" />
    <glyph glyph-name="uni01EB.ss01" horiz-adv-x="1056" 
d="M465 -20q-129 -101 -129 -216q0 -63 33.5 -92.5t81.5 -29.5q91 0 131 69l8 -4q-22 -69 -77 -106t-124 -37q-78 0 -126 40t-48 115t54.5 143t152.5 120q-161 13 -252.5 130.5t-91.5 299.5q0 184 70 335t190 236.5t264 85.5q175 0 277 -120t102 -316q0 -177 -63 -325
t-182.5 -237.5t-270.5 -90.5zM233 516q0 -166 82 -266t230 -100q119 0 209 73t135 189t45 254q0 163 -85 265.5t-222 102.5q-90 0 -165.5 -44t-125 -117t-76.5 -165.5t-27 -191.5z" />
    </font>
</defs>
</svg>
